<?xml version="1.0" standalone="no"?>
<!DOCTYPE svg PUBLIC "-//W3C//DTD SVG 1.1//EN" "http://www.w3.org/Graphics/SVG/1.1/DTD/svg11.dtd" >
<svg xmlns="http://www.w3.org/2000/svg">
<metadata></metadata>
<defs>
<font id="ka_gogebashviliregular" horiz-adv-x="1024" >
<font-face units-per-em="2048" ascent="1638" descent="-410" />
<missing-glyph horiz-adv-x="500" />
<glyph unicode="&#xd;" />
<glyph unicode=" " />
<glyph unicode="!" horiz-adv-x="545" d="M352 1126l-71 -782h-17l-71 788q0 31 24 52.5t55 21.5q32 0 56 -21t24 -52v-7zM373 100q0 -41 -30 -70.5t-71 -29.5q-39 0 -69.5 30.5t-30.5 69.5q0 41 29.5 71t70.5 30q39 0 70 -31t31 -70z" />
<glyph unicode="&#x22;" horiz-adv-x="836" d="M702 1276q0 -109 -75 -473h-49q-5 24 -47 236q-29 147 -29 237q0 110 100 110t100 -110zM336 1276q0 -102 -28 -239l-48 -234h-49q-4 32 -46 236q-30 146 -30 237q0 110 101 110q100 0 100 -110z" />
<glyph unicode="#" d="M115 -27l93 454h-171v82h187l69 343h-256v80h275l91 455h83l-91 -455h337l97 455h83l-95 -455h170v-80h-185l-70 -343h255v-82h-272l-93 -454h-81l91 454h-339l-95 -454h-83zM308 509h339l72 343h-341z" />
<glyph unicode="$" d="M918 334q0 -155 -121 -260q-115 -99 -273 -103v-127h-63v127q-180 6 -355 80v283h44q6 -131 94 -213q85 -80 217 -84v584q-355 196 -355 430q0 143 109 233q98 82 246 94v92h63v-92q119 -2 330 -88v-299h-39q-20 295 -291 322v-514q219 -156 257 -191q137 -129 137 -274z M461 840v473q-88 -8 -141 -61q-56 -55 -56 -142q0 -133 197 -270zM760 287q0 87 -82 170q-31 31 -154 123v-543q100 10 168 80.5t68 169.5z" />
<glyph unicode="%" horiz-adv-x="1706" d="M1636 338q0 -147 -69 -249q-80 -118 -219 -118t-219 118q-70 103 -70 249q0 143 71 248q81 119 218 119q136 0 217 -119q71 -105 71 -248zM1389 1386l-969 -1417h-90l968 1417h91zM647 1018q0 -145 -70 -249q-80 -118 -219 -118t-219 118q-69 102 -69 249q0 145 70 248 q80 118 218 118t218 -118q71 -104 71 -248zM1477 340q0 311 -127 311q-131 0 -131 -315q0 -311 127 -311q131 0 131 315zM487 1020q0 311 -127 311q-131 0 -131 -315q0 -311 127 -311q131 0 131 315z" />
<glyph unicode="&#x26;" horiz-adv-x="1593" d="M1528 244q-27 -123 -108 -197q-85 -78 -208 -78q-168 0 -346 195q-217 -195 -440 -195q-146 0 -245 74q-109 82 -109 223q0 271 413 492q-79 178 -79 301q0 148 99 239q96 88 245 88q117 0 192 -63q80 -67 80 -182q0 -123 -111 -222q-70 -63 -219 -137q125 -241 266 -413 q177 204 177 352q0 43 -25 77q-27 38 -68 38v36h418v-36q-132 0 -264 -208q-53 -88 -190 -319q157 -186 303 -186q147 0 182 147zM905 1149q0 70 -39 115q-42 49 -110 49q-79 0 -130 -52t-51 -131q0 -118 84 -282q246 108 246 301zM815 221q-119 137 -295 469 q-241 -125 -241 -332q0 -110 69 -187q71 -81 180 -81q82 0 155 39q37 20 132 92z" />
<glyph unicode="'" horiz-adv-x="369" d="M285 1276q0 -102 -28 -239l-48 -234h-49q-5 35 -46 236q-30 146 -30 237q0 110 100 110q101 0 101 -110z" />
<glyph unicode="(" horiz-adv-x="774" d="M717 -659q-248 157 -396.5 420t-148.5 554q0 293 148 556t397 421v-45q-210 -167 -299 -418q-74 -210 -74 -514q0 -305 74 -513q89 -250 299 -416v-45z" />
<glyph unicode=")" horiz-adv-x="1004" d="M602 315q0 -291 -149 -556q-148 -261 -396 -418v45q210 166 299 416q74 208 74 513q0 304 -74 514q-89 251 -299 418v45q249 -158 397 -421t148 -556z" />
<glyph unicode="*" d="M494 1044q-4 69 -28 137q-34 98 -34 135q0 52 24.5 79t60.5 27q31 0 54 -27t23 -77q0 -45 -26.5 -125.5t-32.5 -148.5q55 35 99 85q68 79 101 98t67 19q33 0 55.5 -22.5t22.5 -53.5q0 -37 -33 -66t-165 -58q-77 -17 -128 -39q52 -27 127 -41q121 -22 158.5 -55t37.5 -72 q0 -30 -22.5 -52t-52.5 -22t-66.5 21t-98.5 94q-41 49 -102 92q2 -57 23 -124q36 -118 36 -161q0 -40 -24 -67.5t-51 -27.5q-37 0 -67 29q-21 21 -21 67q0 48 23 115.5t29 93t11 75.5q-59 -39 -103 -87q-73 -82 -110 -104q-26 -16 -54 -16q-34 0 -58 23t-24 51 q0 25 20.5 52.5t61.5 45.5q27 12 123 32q62 13 121 38q-54 27 -129 42q-123 26 -152 47q-45 33 -45 80q0 27 22.5 49.5t52.5 22.5q33 0 70 -21t92 -84.5t112 -98.5z" />
<glyph unicode="+" horiz-adv-x="1155" d="M1116 639h-498v-498h-81v498h-496v82h496v498h81v-498h498v-82z" />
<glyph unicode="," horiz-adv-x="573" d="M430 25q0 -134 -84 -251q-77 -107 -203 -175v45q213 139 213 329q0 31 -8 56q-37 -29 -76 -29q-42 0 -78 36.5t-36 78.5q0 47 33.5 80.5t80.5 33.5q79 0 121 -65q37 -56 37 -139z" />
<glyph unicode="-" horiz-adv-x="717" d="M631 287h-545v86h545v-86z" />
<glyph unicode="." horiz-adv-x="545" d="M373 100q0 -41 -30 -70.5t-71 -29.5q-39 0 -69.5 30.5t-30.5 69.5q0 41 29.5 71t70.5 30q39 0 70 -31t31 -70z" />
<glyph unicode="/" horiz-adv-x="569" d="M569 1421l-489 -1450h-80l492 1450h77z" />
<glyph unicode="0" horiz-adv-x="1030" d="M934 756q0 -245 -91 -467q-118 -289 -327 -289q-208 0 -327 289q-93 225 -93 467t93 466q120 289 327 289q209 0 327 -288q91 -222 91 -467zM733 756q0 221 -35 407q-56 297 -182 297q-132 0 -187 -297q-32 -173 -32 -407q0 -233 32 -406q55 -297 187 -297q134 0 187 297 q30 168 30 406z" />
<glyph unicode="1" horiz-adv-x="1030" d="M838 0h-570v33q88 0 144.5 52.5t56.5 139.5v985q-107 -139 -276 -200l-25 30q138 77 236 197q108 131 133 274h116q-16 -59 -16 -149v-1135q0 -89 55.5 -141.5t145.5 -52.5v-33z" />
<glyph unicode="2" horiz-adv-x="1030" d="M910 367v-19q0 -108 -62 -219q-73 -129 -191 -129q-76 0 -203.5 76t-148.5 76q-53 0 -92 -51q-35 -45 -41 -101h-53q0 235 157 399q82 81 290 295q157 167 157 414q0 137 -59 235q-71 117 -199 117q-74 0 -133 -42q-66 -46 -66 -118q0 -28 61.5 -98t61.5 -100 q0 -78 -82 -78q-72 0 -115 61q-38 54 -38 129q0 134 82 215.5t217 81.5q203 0 323 -137q115 -130 115 -336t-140 -344q-34 -33 -291 -208q-183 -125 -245 -263q90 78 203 78q56 0 156 -58.5t135 -58.5q75 0 116 82q33 66 33 148q0 65 -12 123h55z" />
<glyph unicode="3" horiz-adv-x="1030" d="M901 412q0 -185 -111 -298.5t-296 -113.5q-150 0 -250 70q-115 79 -115 223q0 65 29 115q34 61 94 61q96 0 96 -84q0 -2 -30.5 -60.5t-30.5 -88.5q0 -74 61 -129q58 -54 133 -54q132 0 199 123q53 98 53 242q0 136 -59 238q-71 122 -197 122q-28 0 -81.5 -13t-80.5 -13 q-45 0 -45 28q0 41 43 41q14 0 42 -6t42 -6q134 0 200 130q52 102 52 249q0 117 -47 188q-55 84 -166 84q-60 0 -101 -32q-44 -34 -44 -93q0 -20 28.5 -69t28.5 -72q0 -37 -26.5 -61.5t-63.5 -24.5q-113 0 -113 133q0 120 95 197q88 73 211 73q160 0 263 -105t103 -265 q0 -228 -250 -336q152 -34 241 -135q93 -105 93 -258z" />
<glyph unicode="4" horiz-adv-x="1030" d="M934 336h-234v-109q0 -88 56.5 -141t144.5 -53v-33h-571v33q134 0 176 94q26 58 26 209h-436l520 1175h101q-17 -88 -17 -143v-965h234v-67zM532 403v764l-337 -764h337z" />
<glyph unicode="5" horiz-adv-x="1030" d="M901 471q0 -211 -104 -336q-111 -135 -318 -135q-140 0 -239 71q-111 79 -111 214q0 64 32 105q35 46 97 46q107 0 107 -110q0 -25 -25 -77.5t-25 -68.5q0 -55 49 -92q45 -35 101 -35q165 0 213 175q22 80 22 307q0 143 -59 232q-69 105 -205 105q-103 0 -163 -65.5 t-60 -169.5l-16 -33h-33v907h100q94 -106 217 -106q137 0 199 106h53q-35 -106 -119 -183q-92 -85 -196 -85q-92 0 -189 68l-22 -523q110 152 305 152q175 0 287 -151q102 -137 102 -318z" />
<glyph unicode="6" horiz-adv-x="1030" d="M885 469q0 -164 -91 -307q-103 -162 -259 -162q-206 0 -311 241q-79 182 -79 421q0 273 93 521q123 328 346 328q101 0 182 -69q84 -72 84 -172q0 -129 -117 -129q-84 0 -84 86q0 21 25.5 59.5t25.5 56.5q0 47 -36.5 82t-83.5 35q-250 0 -250 -655q73 135 229 135 q165 0 254 -161q72 -131 72 -310zM717 418v104q0 161 -22 233q-40 132 -163 132q-125 0 -164 -132q-20 -68 -20 -233v-104q0 -165 20 -233q39 -132 164 -132q123 0 163 132q22 72 22 233z" />
<glyph unicode="7" horiz-adv-x="1030" d="M901 1411q0 -55 -78 -170q-225 -332 -225 -862q0 -45 17.5 -132t17.5 -132q0 -115 -98 -115q-138 0 -138 227q0 214 109 518q105 292 239 476q52 72 61 86q25 40 42 98q-148 -145 -316 -145q-44 0 -128 26.5t-128 26.5q-104 0 -104 -139q0 -28 5 -84t5 -84h-53v540h53 v-225q111 190 301 190q60 0 170 -49t133 -49q53 0 62 45v88h53v-135z" />
<glyph unicode="8" horiz-adv-x="1030" d="M918 397q0 -184 -117.5 -290.5t-302.5 -106.5q-165 0 -273 99q-112 103 -112 266q0 258 282 409q-223 148 -223 367q0 155 100 262.5t254 107.5q149 0 240.5 -95.5t91.5 -244.5q0 -194 -240 -323q300 -217 300 -451zM805 1171q0 126 -76.5 207.5t-202.5 81.5 q-98 0 -158.5 -61.5t-60.5 -159.5q0 -180 268 -354q230 114 230 286zM784 295q0 199 -346 442q-272 -127 -272 -372q0 -142 96 -229q92 -83 236 -83q114 0 196 63q90 68 90 179z" />
<glyph unicode="9" horiz-adv-x="1030" d="M885 848q0 -275 -92 -521q-122 -327 -347 -327q-98 0 -180 71q-86 75 -86 171q0 127 117 127q84 0 84 -84q0 -18 -25.5 -60.5t-25.5 -56.5q0 -47 36.5 -81t84.5 -34q249 0 249 652q-73 -136 -229 -136q-165 0 -254 161q-72 131 -72 310q0 168 90 309q103 162 261 162 q207 0 311 -242q78 -181 78 -421zM682 987v107q0 163 -21 234q-39 132 -163 132q-122 0 -163 -133q-22 -72 -22 -233v-107q0 -161 22 -233q40 -131 163 -131q125 0 164 131q20 67 20 233z" />
<glyph unicode=":" horiz-adv-x="545" d="M373 559q0 -40 -30.5 -70t-70.5 -30q-39 0 -69.5 30.5t-30.5 69.5t30.5 69.5t69.5 30.5t70 -30.5t31 -69.5zM373 100q0 -41 -30 -70.5t-71 -29.5q-39 0 -69.5 30.5t-30.5 69.5q0 41 29.5 71t70.5 30q39 0 70 -31t31 -70z" />
<glyph unicode=";" horiz-adv-x="545" d="M344 559q0 -39 -30.5 -69.5t-69.5 -30.5q-40 0 -70.5 30t-30.5 70q0 39 31 69.5t70 30.5t69.5 -30.5t30.5 -69.5zM401 -8q0 -260 -213 -365v45q140 90 140 248q0 47 -17 92q-30 -12 -59 -12q-44 0 -76.5 28.5t-32.5 71.5q0 41 32 71t73 30q78 0 119 -69q34 -57 34 -140z " />
<glyph unicode="&#x3c;" horiz-adv-x="1155" d="M1116 186l-1075 469v50l1075 469v-89l-926 -405l926 -406v-88z" />
<glyph unicode="=" horiz-adv-x="1155" d="M1116 801h-1075v82h1075v-82zM1116 477h-1075v82h1075v-82z" />
<glyph unicode="&#x3e;" horiz-adv-x="1155" d="M1116 655l-1075 -469v88l926 406l-926 405v89l1075 -469v-50z" />
<glyph unicode="?" horiz-adv-x="803" d="M659 915q0 -111 -69 -198q-73 -92 -182 -92q-35 0 -89 16l-4 -297h-28l-13 315l41 29q23 -33 62 -33q153 0 153 260q0 93 -28 165q-38 98 -117 98q-113 0 -113 -174h-129q58 202 250 202q117 0 193 -88q73 -85 73 -203zM401 100q0 -41 -29.5 -70.5t-70.5 -29.5 q-39 0 -69.5 30.5t-30.5 69.5q0 42 29 71.5t71 29.5q43 0 71.5 -29t28.5 -72z" />
<glyph unicode="@" horiz-adv-x="1903" d="M1739 717q0 -230 -119 -396q-133 -186 -354 -186q-83 0 -140 40q-63 44 -69 124h-8q-105 -160 -234 -160q-231 0 -231 277q0 186 139 358q147 182 328 182q134 0 153 -125h6l43 113h150l-125 -325q-84 -218 -84 -322q0 -98 92 -98q184 0 283 181q80 146 80 347 q0 263 -164 414q-159 147 -424 147q-325 0 -533 -238q-198 -227 -198 -556q0 -330 164 -523q175 -207 499 -207q303 0 506 168l31 -51q-223 -194 -545 -194q-357 0 -585 215q-232 220 -232 575q0 382 259 637.5t642 255.5q301 0 484 -175q186 -178 186 -478zM1182 741 q-27 156 -135 156q-130 0 -218 -191q-73 -158 -73 -307q0 -176 88 -176q173 0 279 325q11 35 59 193z" />
<glyph unicode="A" horiz-adv-x="1374" d="M1421 0h-592v72q183 10 183 57q0 35 -55 177l-72 186h-498q-98 -250 -98 -332q0 -78 205 -88v-72h-535v72q82 6 129 37q66 43 105 137q26 63 466 1194h80l473 -1225q55 -142 209 -143v-72zM850 580l-215 550l-211 -550h426z" />
<glyph unicode="B" horiz-adv-x="1339" d="M1247 385q0 -185 -152 -291q-134 -94 -327 -94h-674v72q98 7 130 20q65 26 65 101v1019q0 118 -187 136v71h656q168 0 279 -69q132 -82 132 -240q0 -270 -335 -344v-8q413 -53 413 -373zM930 1090q0 249 -266 249h-82l-80 -4v-544h127q301 0 301 299zM1001 422 q0 140 -95 217q-87 72 -230 72q-46 0 -174 -4v-500q0 -127 192 -127q307 0 307 342z" />
<glyph unicode="C" horiz-adv-x="1315" d="M1288 358q-160 -391 -565 -391q-295 0 -476 221q-169 207 -169 508q0 316 177 528q189 226 499 226q190 0 352 -98l41 67h80l10 -506h-84q-96 453 -387 453q-240 0 -357 -220q-92 -173 -92 -435q0 -244 115 -423q134 -208 365 -208q149 0 260 88q104 82 157 227z" />
<glyph unicode="D" horiz-adv-x="1534" d="M1456 700q0 -328 -227 -520q-214 -180 -547 -180h-588v72q95 0 131 14q64 25 64 102v1024q0 75 -60 107q-39 21 -127 29v71h621q330 0 531.5 -195t201.5 -524zM1212 702q0 266 -135 442q-148 193 -407 193h-92l-76 -4v-1089q0 -162 215 -162q263 0 389 187 q106 157 106 433z" />
<glyph unicode="E" horiz-adv-x="1337" d="M1290 418l-26 -418h-1178v72q103 5 135 17q68 25 68 104v1019q0 116 -203 136v71h1098v-342h-74q-41 147 -130 206q-83 56 -239 56h-239v-563h160q117 0 170 60q45 50 63 172h74v-555h-74q-10 122 -59 178q-56 63 -174 63h-160v-426q0 -115 53 -157q40 -32 137 -32 q23 0 70 2q46 1 69 1q174 0 260 82q72 69 128 254h71z" />
<glyph unicode="F" horiz-adv-x="1227" d="M1198 1065h-74q-39 152 -126 215q-83 59 -243 59h-253v-569h162q120 0 176.5 55t66.5 176h76v-557h-76q-9 126 -62 183q-57 61 -181 61h-162v-487q0 -125 198 -129v-72h-614v72q101 3 135 15q68 24 68 101v1024q0 116 -203 136v71h1112v-354z" />
<glyph unicode="G" horiz-adv-x="1485" d="M1470 567q-92 -12 -129 -28q-60 -26 -60 -243q0 -50 9 -206q-274 -123 -522 -123q-311 0 -504 212q-186 205 -186 519q0 321 194 533q201 219 519 219q202 0 366 -98l41 67h80l8 -495h-82q-110 442 -420 442q-247 0 -367 -216q-95 -171 -95 -441q0 -261 112 -441 q133 -213 379 -213q180 0 264 84q8 54 8 107v168q0 96 -76 128q-40 17 -159 25v74h620v-74z" />
<glyph unicode="H" horiz-adv-x="1669" d="M1567 0h-588v72q94 4 127 17q61 24 61 99v506h-665v-493q0 -125 184 -129v-72h-588v72q95 4 128 17q63 25 63 99v1024q0 64 -66 102q-53 30 -125 34v71h588v-71q-184 -5 -184 -125v-441h665v430q0 63 -65 101q-53 31 -123 35v71h588v-71q-187 -5 -187 -125v-1022 q0 -124 187 -129v-72z" />
<glyph unicode="I" horiz-adv-x="799" d="M719 0h-639v72q104 4 139 15q74 23 74 99v1028q0 117 -213 134v71h639v-71q-100 -4 -140 -19q-73 -27 -73 -104v-1026q0 -122 213 -127v-72z" />
<glyph unicode="J" horiz-adv-x="1061" d="M1006 1348q-97 -4 -134 -20q-63 -27 -63 -105v-840q0 -179 -126 -298.5t-306 -119.5q-161 0 -261 88q-106 92 -106 250q0 70 33 118q38 56 104 56q134 0 134 -123q0 -54 -38 -119q-18 -31 -65 -110q53 -84 184 -84q146 0 199 149q33 93 33 273v749q0 120 -213 136v71h625 v-71z" />
<glyph unicode="K" horiz-adv-x="1421" d="M1475 0h-398q-219 340 -551 694h-24v-493q0 -124 188 -129v-72h-588v72q94 4 126 17q61 25 61 99v1024q0 122 -187 136v71h588v-71q-188 -5 -188 -125v-490h18q146 122 285 267q203 213 203 298q0 24 -64 39q-47 11 -84 11v71h533v-71q-177 0 -321 -172 q-35 -42 -128.5 -151.5t-220.5 -229.5q195 -223 250 -295q37 -50 134 -181q181 -242 368 -247v-72z" />
<glyph unicode="L" horiz-adv-x="1237" d="M1237 422l-31 -422h-1108v72q102 8 129 19q62 25 62 102v1015q0 127 -191 140v71h598v-71q-90 -2 -132 -22q-62 -30 -62 -107v-953q0 -133 50 -165q36 -23 181 -23q197 0 285 76q75 65 147 268h72z" />
<glyph unicode="M" horiz-adv-x="1898" d="M1806 0h-626v72q104 2 145 17q76 28 76 112v1032h-17l-483 -1210h-49l-463 1234h-12v-847q0 -168 37 -238q53 -100 207 -100v-72h-574v72q161 13 204 90q30 53 30 237v725q0 214 -224 224v71h484l405 -1065l348 891q43 110 47 174h463v-71q-192 -4 -192 -125v-1022 q0 -125 194 -129v-72z" />
<glyph unicode="N" horiz-adv-x="1571" d="M1554 1348q-153 0 -200 -93q-31 -61 -31 -231v-1038h-86l-860 1161v-731q0 -176 38 -245q54 -99 216 -99v-72h-584v72q158 10 203 96q31 59 31 235v701q0 110 -74 176q-70 63 -182 68v71h403l799 -1081v674q0 178 -36 240q-51 87 -214 96v71h577v-71z" />
<glyph unicode="O" horiz-adv-x="1524" d="M1444 709q0 -311 -183 -522q-193 -222 -499 -222q-312 0 -502 219q-180 208 -180 525t180 525q190 218 502 218t502 -218q180 -208 180 -525zM1202 709q0 266 -87 435q-113 220 -353 220q-241 0 -353 -219q-87 -170 -87 -436q0 -264 88 -434q114 -220 352 -220 q239 0 353 221q87 169 87 433z" />
<glyph unicode="P" horiz-adv-x="1249" d="M1184 1069q0 -272 -224 -375q-154 -71 -458 -71v-430q0 -82 67 -107q32 -12 138 -14v-72h-609v72q102 8 129 19q62 25 62 102v1024q0 78 -66 107q-36 16 -133 24v71h649q182 0 304 -82q141 -95 141 -268zM936 1020q0 317 -295 317h-139v-626h100q334 0 334 309z" />
<glyph unicode="Q" horiz-adv-x="1524" d="M1444 709q0 -247 -118 -431q-122 -192 -349 -274q2 -104 71 -191q74 -94 175 -94q106 0 194 17v-78q-145 -43 -299 -43q-161 0 -262 97q-98 93 -117 255q-305 10 -487 226q-172 206 -172 516q0 317 180 525q190 218 502 218t502 -218q180 -208 180 -525zM1202 709 q0 266 -87 435q-113 220 -353 220q-241 0 -353 -219q-87 -170 -87 -436q0 -264 88 -434q114 -220 352 -220q239 0 353 221q87 169 87 433z" />
<glyph unicode="R" horiz-adv-x="1438" d="M1481 0h-383q-221 348 -453 643h-143v-450q0 -80 63 -105q35 -14 133 -16v-72h-600v72q102 8 129 19q62 25 62 102v1026q0 75 -63 104q-37 17 -128 25v71h656q188 0 305 -73q141 -87 141 -265q0 -282 -346 -383q104 -144 241 -331q166 -227 255 -269q50 -24 131 -26v-72z M954 1059q0 132 -75 205t-207 73h-170v-608h131q147 0 234 91.5t87 238.5z" />
<glyph unicode="S" horiz-adv-x="1149" d="M1069 403q0 -198 -145 -319q-136 -113 -338 -113q-189 0 -355 101l-43 -72h-79l-15 485h80q119 -428 430 -428q268 0 268 250q0 187 -192 271q-27 12 -258 108l-97 41q-192 111 -192 338q0 172 131 282q123 103 299 103q158 0 318 -98l41 67h79l9 -471h-82 q-54 195 -117 283q-95 133 -260 133q-96 0 -161 -57q-68 -59 -68 -154q0 -176 194 -263q99 -43 359 -155q194 -114 194 -332z" />
<glyph unicode="T" horiz-adv-x="1268" d="M1251 1034h-69q-21 84 -84 179q-53 80 -110 108q-45 22 -126 22q-21 0 -61 -1q-41 -1 -62 -1v-1134q0 -130 230 -135v-72h-670v72q116 7 148 18q79 27 79 107v1144h-57q-111 0 -166 -8q-62 -9 -135 -123q-61 -95 -82 -176h-72v385h1237v-385z" />
<glyph unicode="U" horiz-adv-x="1548" d="M1534 1348q-113 -5 -171 -43q-70 -46 -70 -500q0 -134 5 -262l5 -127q0 -207 -156 -334q-144 -117 -356 -117t-360 97q-171 112 -171 313v837q0 116 -186 136v71h592v-71q-191 -5 -191 -125v-785q0 -360 352 -360q169 0 271 94q106 97 106 264v584q0 184 -36 240 q-49 76 -216 88v71h582v-71z" />
<glyph unicode="V" horiz-adv-x="1366" d="M1407 1348q-144 -3 -219 -168q-126 -277 -247 -595l-230 -603h-82l-461 1230q-47 126 -207 136v71h588v-71q-178 -8 -178 -54q0 -19 366 -999l200 488q153 373 153 477q0 71 -211 88v71h528v-71z" />
<glyph unicode="W" horiz-adv-x="1999" d="M2028 1348q-164 -7 -213 -168l-367 -1198h-92l-359 1091l-372 -1091h-88l-349 1230q-35 123 -192 136v71h579v-71q-184 -9 -184 -52q0 -53 121 -464l143 -486l355 1053h98l356 -1075q246 849 246 936q0 73 -197 88v71h515v-71z" />
<glyph unicode="X" horiz-adv-x="1454" d="M1456 0h-663v72q184 4 184 57q0 64 -287 481q-311 -409 -311 -471q0 -63 164 -67v-72h-531v72q101 6 162 42q55 34 119 119l342 459l-340 496q-61 89 -111 119q-53 33 -157 41v71h657v-71q-182 -7 -182 -54q0 -57 266 -448q276 375 276 436q0 59 -163 66v71h528v-71 q-81 -2 -131 -25q-78 -36 -238 -250q-2 -2 -219 -303l178 -258q7 -10 185 -289q116 -148 272 -151v-72z" />
<glyph unicode="Y" horiz-adv-x="1260" d="M1315 1348q-116 -10 -215 -144q-116 -157 -227 -356q-144 -258 -144 -369v-270q0 -132 227 -137v-72h-663v72q121 8 148 17q75 25 75 110v344q0 70 -326 635q-47 81 -93 117q-54 41 -140 53v71h604v-71q-186 -5 -186 -48q0 -25 311 -591q324 520 324 565q0 42 -78 60 q-22 5 -111 14v71h494v-71z" />
<glyph unicode="Z" horiz-adv-x="1233" d="M1214 442l-47 -442h-1140v35l893 1304h-326q-180 0 -279 -77q-91 -71 -161 -244h-70l43 401h1063v-35l-893 -1304h338q227 0 329 75q96 71 181 287h69z" />
<glyph unicode="[" horiz-adv-x="768" d="M700 -309h-532v1829h532v-93h-354v-1644h354v-92z" />
<glyph unicode="\" horiz-adv-x="961" d="M911 -424h-131l-690 1948h131z" />
<glyph unicode="]" horiz-adv-x="768" d="M600 -309h-532v92h354v1644h-354v93h532v-1829z" />
<glyph unicode="^" horiz-adv-x="1317" d="M1126 797h-145l-322 524l-323 -524h-146l412 659h115z" />
<glyph unicode="_" horiz-adv-x="1317" d="M1323 -283h-1327v103h1327v-103z" />
<glyph unicode="`" d="M739 1143l-39 -33q-61 45 -216 164q-156 123 -156 186q0 78 82 78q71 0 181 -165q41 -64 148 -230z" />
<glyph unicode="a" horiz-adv-x="1032" d="M1006 18q-105 -38 -162 -38q-158 0 -185 143h-6q-133 -148 -319 -148q-112 0 -183 67t-71 179q0 135 105 216q72 55 232 106q186 59 238 88v98q0 93 -47 150q-50 61 -141 61q-96 0 -141 -47q1 -20 9.5 -63.5t8.5 -67.5q0 -45 -39 -70q-33 -22 -80 -22q-96 0 -96 114 q0 100 129 170q111 60 221 60q182 0 269 -70q96 -78 96 -256q0 -19 -3 -183q-3 -165 -3 -310v-2q0 -74 51 -97q31 -14 117 -14v-64zM657 547q-172 -51 -244 -95q-132 -80 -132 -206q0 -160 153 -160q125 0 217 115z" />
<glyph unicode="b" horiz-adv-x="1147" d="M1073 494q0 -210 -125 -363q-134 -162 -340 -162q-155 0 -307 92l-74 -114l-61 14q8 133 8 352v1004q0 85 -57 117q-38 21 -133 26v66l362 22l14 -14v-651l7 -2q125 133 280 133q201 0 320 -164q106 -147 106 -356zM864 487q0 165 -59 275q-75 139 -227 139 q-127 0 -218 -100v-576q0 -69 84 -127q77 -53 148 -53q148 0 219 156q53 116 53 286z" />
<glyph unicode="c" horiz-adv-x="930" d="M926 229q-65 -113 -166 -181q-110 -75 -232 -75q-226 0 -346 154q-110 139 -110 371q0 214 126 361q132 155 343 155q135 0 224 -60q103 -69 103 -198q0 -127 -102 -127q-49 0 -84 23q-41 26 -41 73q0 30 12 81q13 57 15 81q-31 51 -131 51q-145 0 -211 -154 q-47 -110 -47 -278q0 -167 65 -281q80 -141 234 -141q172 0 282 188z" />
<glyph unicode="d" horiz-adv-x="1176" d="M1153 18l-344 -22l-16 14v92l-9 2q-116 -133 -284 -133q-198 0 -319 169q-109 152 -109 356q0 209 128 360q135 158 341 158q139 0 250 -64v344q0 101 -70 138q-44 23 -162 30v64l404 22l16 -14v-1331q0 -76 54 -101q34 -16 120 -18v-66zM791 190v578q0 71 -83 124 q-72 46 -147 46q-150 0 -224 -162q-56 -122 -56 -293q0 -161 62 -269q77 -134 226 -134q125 0 222 110z" />
<glyph unicode="e" horiz-adv-x="989" d="M948 231q-135 -258 -405 -258q-230 0 -355 153q-116 141 -116 376q0 210 118 356q126 156 332 156q224 0 321 -139q81 -117 81 -351h-654q0 -189 69 -302q84 -138 261 -138q172 0 279 190zM727 608q0 330 -207 330q-121 0 -189 -109q-55 -89 -61 -221h457z" />
<glyph unicode="f" horiz-adv-x="666" d="M807 1430q0 -107 -98 -107q-55 0 -98 48q-14 19 -66 93q-102 -4 -130 -208q-9 -66 -9 -275h253v-94h-253v-709q0 -65 66 -91q35 -14 122 -21v-66h-520v66q73 5 100 18q45 22 45 84v719h-194v94h194q0 239 83 384q104 183 325 183q180 0 180 -118z" />
<glyph unicode="g" horiz-adv-x="1042" d="M1004 -102q0 -184 -176 -273q-136 -69 -341 -69q-444 0 -444 258q0 109 91 169q75 50 192 56v12q-174 56 -174 174q0 111 149 174v17q-201 94 -201 278q0 151 113 239q103 81 258 81q31 0 90.5 -16.5t89.5 -16.5h344v-94h-231v-6q74 -86 74 -199q0 -136 -111 -225 q-103 -84 -242 -84h-120q-27 0 -49.5 -29t-22.5 -57q0 -85 184 -95q283 -15 343 -34q184 -58 184 -260zM647 686q0 103 -38 171q-47 85 -142 85q-172 0 -172 -250q0 -98 37 -166q47 -84 137 -84q92 0 139 80q39 66 39 164zM840 -139q0 157 -273 157q-25 0 -74 -2 q-50 -2 -75 -2q-79 0 -140 -58.5t-61 -137.5q0 -102 108 -151q80 -36 197 -36q318 0 318 230zM461 -769q0 62 78 62q77 0 77 -62q0 -61 -77 -61q-78 0 -78 61z" />
<glyph unicode="h" horiz-adv-x="1192" d="M1143 0h-484v66q80 5 105 16q47 21 47 86v508q0 89 -40 149q-46 70 -130 70q-91 0 -150 -37q-50 -32 -106 -113v-567q0 -101 152 -112v-66h-484v66q74 5 101 18q45 22 45 84v1149q0 87 -58 118q-38 20 -135 25v66l365 22l14 -14v-688h4q168 168 336 168q274 0 274 -326 v-512q0 -99 144 -110v-66z" />
<glyph unicode="i" horiz-adv-x="600" d="M426 1386q0 -58 -37 -99.5t-94 -41.5q-52 0 -88.5 40t-36.5 93q0 54 36 96t89 42q57 0 94 -36.5t37 -93.5zM551 0h-477v66q75 6 100 18q45 22 45 84v608q0 122 -176 135v66l348 20l15 -14v-803q0 -101 145 -114v-66z" />
<glyph unicode="j" horiz-adv-x="598" d="M446 1389q0 -58 -37 -101t-94 -43q-52 0 -88.5 40t-36.5 93q0 54 36 96t89 42q55 0 93 -36t38 -91zM430 59q0 -198 -99 -341q-112 -162 -302 -162q-181 0 -181 118q0 109 95 109q56 0 98 -48q14 -16 63 -95q142 0 142 387v741q0 87 -76 119q-38 16 -150 26v64l398 20 l12 -14v-924z" />
<glyph unicode="k" horiz-adv-x="1098" d="M1116 0h-297q-114 167 -352 494l-82 -78v-234q0 -105 152 -116v-66h-484v66q76 5 101 17q45 22 45 85v1147q0 87 -58 118q-37 20 -135 27v66l365 22l14 -14v-1045l168 168q180 180 180 207q0 41 -127 58v63h434v-61q-138 -40 -242 -125q-11 -9 -196 -189 q97 -118 184 -241q37 -55 136 -194q76 -103 194 -109v-66z" />
<glyph unicode="l" horiz-adv-x="586" d="M535 0h-482v66q77 5 102 17q46 22 46 85v1143q0 137 -199 149v66l371 22l14 -14v-1354q0 -103 148 -114v-66z" />
<glyph unicode="m" horiz-adv-x="1804" d="M1761 0h-481v66q73 5 99 18q44 22 44 84v510q0 87 -39 147q-45 70 -127 70q-143 0 -249 -147v-570q0 -100 143 -112v-66h-471v66q72 6 97 19q42 22 42 83v510q0 87 -39 147q-45 70 -127 70q-90 0 -147 -38q-45 -30 -103 -112v-565q0 -102 148 -114v-66h-479v66 q75 6 100 18q45 22 45 84v612q0 121 -160 131v66l330 20l14 -14v-139h7q94 91 146 122q80 48 183 48q189 0 264 -176q98 94 151 126q83 50 189 50q271 0 271 -334v-502q0 -102 149 -112v-66z" />
<glyph unicode="n" horiz-adv-x="1210" d="M1161 0h-483v66q80 5 104 16q47 21 47 86v508q0 87 -41 148q-47 71 -129 71q-163 0 -256 -150v-567q0 -100 152 -112v-66h-483v66q75 6 100 18q45 22 45 84v608q0 123 -156 135v66l328 20l14 -14v-137h5q90 88 147 121q82 47 184 47q279 0 279 -326v-512q0 -99 143 -110 v-66z" />
<glyph unicode="o" horiz-adv-x="1104" d="M1032 504q0 -230 -128 -379q-134 -156 -361 -156q-214 0 -347 155q-126 147 -126 365q0 229 128 373q133 152 359 152q221 0 351 -146q124 -140 124 -364zM825 502q0 171 -51 283q-70 153 -219 153q-150 0 -223 -149q-56 -115 -56 -283q0 -178 53 -298q72 -163 226 -163 q149 0 219 164q51 120 51 293z" />
<glyph unicode="p" horiz-adv-x="1169" d="M1098 496q0 -210 -125 -362q-134 -161 -340 -161q-147 0 -240 68h-8v-297q0 -116 199 -121v-67h-551v67q85 5 113 17q53 23 53 92v1048q0 119 -166 131v66l336 20l14 -12v-111l8 -2q121 142 283 142q199 0 318 -165q106 -147 106 -353zM889 487q0 163 -62 275 q-77 139 -227 139q-123 0 -215 -108v-584q0 -61 87 -114q78 -48 142 -48q147 0 220 156q55 118 55 284z" />
<glyph unicode="q" horiz-adv-x="1147" d="M1153 -444h-532v67q86 5 115 17q55 23 55 92v364l-7 2q-112 -125 -276 -125q-205 0 -327 168q-109 151 -109 363q0 205 132 355q138 155 341 155q147 0 309 -105l84 131l57 -8q-16 -315 -16 -366v-918q0 -70 56 -99q37 -19 118 -26v-67zM791 182v590q0 71 -85 122 q-74 44 -149 44q-145 0 -219 -164q-57 -126 -57 -291t65 -272q79 -129 234 -129q118 0 211 100z" />
<glyph unicode="r" horiz-adv-x="840" d="M827 858q0 -129 -102 -129q-45 0 -78 23q-37 26 -37 69q0 17 11 76q-61 0 -125 -46q-58 -41 -93 -99v-574q0 -66 67 -91q27 -10 122 -21v-66h-520v66q75 6 100 18q45 22 45 84v608q0 123 -156 135v66l328 20l14 -14v-137h5q127 164 276 164q143 0 143 -152z" />
<glyph unicode="s" horiz-adv-x="885" d="M809 285q0 -148 -114 -234q-102 -78 -255 -78q-157 0 -262 88l-20 -63h-74l-10 342h67q25 -115 110 -199q92 -90 204 -90q200 0 200 168q0 111 -144 167q-79 31 -269 101q-144 79 -144 238q0 135 101 215q92 74 231 74q125 0 217 -51l23 53h71l17 -318h-70 q-20 103 -87 169q-72 71 -173 71q-71 0 -120 -34q-56 -39 -56 -107q0 -110 144 -167q47 -19 269 -104q144 -81 144 -241z" />
<glyph unicode="t" horiz-adv-x="707" d="M682 43q-156 -63 -266 -63q-226 0 -226 237v670h-178v94h183v307h182v-307h282v-94h-280v-551q0 -117 22 -164q34 -72 138 -72q96 0 143 17v-74z" />
<glyph unicode="u" horiz-adv-x="1178" d="M1128 18l-319 -22l-16 14v125h-7q-149 -160 -327 -160q-269 0 -269 334v471q0 119 -155 129v66l330 22l14 -14v-684q0 -87 38 -146q44 -69 126 -69q168 0 248 145v559q0 79 -60 104q-29 12 -127 17v66l359 22l16 -14v-782q0 -117 149 -117v-66z" />
<glyph unicode="v" horiz-adv-x="1018" d="M1047 926q-108 -20 -156 -119q-218 -449 -336 -815h-80q-132 334 -340 823q-37 87 -153 105v65h454v-70q-119 -4 -119 -43q44 -114 252 -624q238 547 238 598q0 55 -137 76v63h377v-59z" />
<glyph unicode="w" horiz-adv-x="1509" d="M1540 922q-119 -11 -160 -127q-187 -529 -264 -801h-86l-264 725l-268 -725h-82l-273 819q-31 92 -147 107v65h438v-70q-108 -2 -108 -43q0 -6 188 -616l252 711h96l256 -701q180 513 180 586q0 31 -53 53q-41 17 -80 17v63h375v-63z" />
<glyph unicode="x" horiz-adv-x="1034" d="M1022 0h-453v66q109 12 109 36q0 28 -205 324q-211 -268 -211 -305q0 -47 115 -58v-63h-365v61q125 36 236 175q15 19 180 245l-246 355q-58 84 -153 84v65h428v-65q-95 0 -95 -23q25 -64 88 -153l103 -146q178 245 178 272q0 35 -98 52v63h362v-61q-134 -35 -229 -152 q-7 -9 -168 -227q51 -78 186 -280q133 -193 238 -199v-66z" />
<glyph unicode="y" horiz-adv-x="1008" d="M1038 924q-118 -20 -173 -157q-46 -118 -164 -424q-133 -343 -244 -528q-156 -259 -293 -259q-65 0 -111 28q-55 33 -55 94q0 45 24 77q27 36 70 36q81 0 156 -127q56 31 129 153q59 98 92 187q-133 335 -334 811q-37 87 -153 105v65h448v-70q-113 -4 -113 -43 q39 -90 252 -628q236 561 236 602q0 30 -53 53q-44 19 -80 23v63h366v-61z" />
<glyph unicode="z" horiz-adv-x="909" d="M854 0h-799v53l557 852h-137q-184 0 -225 -24q-60 -35 -96 -199h-62v303h756v-41l-567 -862l77 -2h103q203 0 245 35q39 33 87 233h61v-348z" />
<glyph unicode="{" horiz-adv-x="881" d="M813 -334q-224 0 -323 66q-123 82 -123 295q0 42 8 127t8 127q0 140 -90 200q-69 46 -221 56v129q153 13 220 57q91 60 91 199q0 43 -8 128t-8 128q0 207 126 290q103 68 320 68v-82q-158 -8 -219 -82q-47 -57 -47 -177q0 -34 3.5 -101t3.5 -101q0 -146 -59 -228 q-79 -110 -282 -149v-30q205 -40 284 -151q59 -83 59 -231q0 -33 -4 -99.5t-4 -99.5q0 -135 64 -195q61 -57 201 -64v-80z" />
<glyph unicode="|" horiz-adv-x="768" d="M449 -424h-127v1948h127v-1948z" />
<glyph unicode="}" horiz-adv-x="881" d="M809 537q-152 -10 -220 -56q-89 -60 -89 -200q0 -42 7 -127t7 -127q0 -212 -123 -294q-100 -67 -323 -67v80q158 8 218 82q46 56 46 176q0 33 -3.5 100t-3.5 100q0 148 60 231q80 111 285 151v30q-205 39 -285 149q-59 81 -59 228q0 34 4 102.5t4 102.5q0 136 -67 195 q-60 54 -199 61v82q220 0 321 -67q125 -83 125 -291q0 -43 -7 -128t-7 -128q0 -139 90 -198q67 -44 219 -58v-129z" />
<glyph unicode="~" horiz-adv-x="1317" d="M1188 715q-45 -117 -130 -199q-100 -96 -212 -96q-80 0 -229.5 67.5t-213.5 67.5q-106 0 -194 -174l-80 31q39 111 131 197q103 96 211 96q79 0 233 -68t209 -68q113 0 197 176z" />
<glyph unicode="&#xa1;" horiz-adv-x="682" d="M342 974q47 0 79 -32.5t32 -78.5t-32.5 -78t-78.5 -32t-78 32t-32 78t32 78.5t78 32.5zM322 587h38l89 -809q5 -53 5 -79q0 -63 -33.5 -101.5t-79.5 -38.5q-47 0 -80 38t-33 114q0 24 5 67z" />
<glyph unicode="&#xa2;" d="M900 349q-47 -188 -163 -292q-90 -80 -221 -80q-81 0 -162 34l-142 -389h-70l155 426q-81 76 -117 154q-51 110 -51 250q0 254 157 390q120 105 273 105q20 0 61 -4l140 383h72l-145 -402q101 -45 138 -87q48 -54 48 -115q0 -39 -24 -62t-70 -23q-55 0 -86 38 q-18 22 -26 82q-4 31 -17 65l-228 -631q56 -38 94 -51q28 -10 69 -10q61 0 117 25.5t85 60t83 146.5zM370 250l223 615q-28 12 -60 12q-102 0 -162 -74q-82 -100 -82 -268q0 -75 17.5 -138t63.5 -147z" />
<glyph unicode="&#xa3;" d="M723 659h-258q1 -46 1 -68q0 -94 -13.5 -174t-48.5 -184q196 -63 224 -69q52 -12 102 -12q83 0 135 38.5t76 121.5l36 -9q-21 -161 -103.5 -243.5t-183.5 -82.5q-68 0 -123 24t-203 135q-40 -80 -86.5 -119.5t-99.5 -39.5q-50 0 -83.5 34t-33.5 94q0 67 46 111.5 t118 44.5q17 0 38 -2t47 -6q2 26 2.5 45t0.5 32q0 88 -21 329h-194v95h194q-13 149 -13 199q0 122 49 223t135.5 154.5t185.5 53.5q126 0 189.5 -68t63.5 -136q0 -32 -24.5 -57t-53.5 -25q-38 0 -63 38q-11 18 -15 77.5t-34 87.5q-31 28 -87 28q-79 0 -130.5 -62t-51.5 -218 q0 -73 12 -187q7 -75 10 -108h258v-95zM298 172q-22 14 -43 21t-42 7q-45 0 -70 -24.5t-25 -63.5q0 -36 19.5 -57t45.5 -21q33 0 64.5 31t50.5 107z" />
<glyph unicode="&#xa4;" d="M997 250l-57 -57l-147 147q-121 -104 -281 -104q-164 0 -281 104l-147 -147l-57 57l147 147q-104 117 -104 281q0 160 104 280l-147 148l57 57l147 -147q117 104 281 104q160 0 281 -104l147 147l57 -57l-147 -148q104 -120 104 -280t-104 -281zM872 678 q0 155 -102.5 257.5t-257.5 102.5q-154 0 -257 -103t-103 -257q0 -150 105 -255.5t255 -105.5q152 0 256 104.5t104 256.5z" />
<glyph unicode="&#xa5;" d="M597 425h426v-73h-426v-108q0 -112 11 -143q9 -22 34 -38q37 -22 85 -22h41v-41h-515v41h32q70 0 104 26q24 19 33 57q4 19 4 120v108h-424v73h424v144l-15 36h-409v73h377l-213 496q-37 87 -72.5 115t-91.5 29v38h442v-38q-72 -5 -96.5 -23t-24.5 -39q0 -16 18 -59 l214 -519l213 504q21 50 21 75q0 21 -21 41q-14 13 -64 17q-9 0 -27 3v38h346v-38q-60 0 -87 -23q-43 -35 -86 -132l-214 -485h387v-73h-419l-7 -16v-164z" />
<glyph unicode="&#xa6;" horiz-adv-x="410" d="M244 1422v-742h-83v742h83zM244 300v-741h-83v741h83z" />
<glyph unicode="&#xa7;" d="M377 843q-67 74 -95.5 135t-28.5 124q0 117 82 199.5t202 82.5q110 0 181.5 -67t71.5 -153q0 -39 -26 -69q-19 -21 -53 -21t-56 23t-22 54q0 15 8 53q5 23 5 43q0 41 -29 68t-80 27q-73 0 -123.5 -51t-50.5 -124q0 -64 27 -106q45 -70 151 -147q201 -145 275 -260 q52 -82 52 -172q0 -91 -53 -182t-168 -160q70 -77 96.5 -132.5t26.5 -120.5q0 -122 -82 -204t-202 -82q-108 0 -179.5 68.5t-71.5 156.5q0 37 23.5 62.5t54.5 25.5t53 -23.5t22 -63.5q0 -27 -8 -59.5t-8 -49.5q0 -29 25 -48q39 -30 95 -30q67 0 121.5 52t54.5 113 q0 62 -31 111q-48 75 -174 169q-188 140 -256 247q-51 81 -51 172q0 92 54 181.5t167 157.5zM409 812q-151 -91 -151 -222q0 -70 37 -129q52 -81 197 -191q70 -53 122 -101q153 93 153 220q0 65 -44 135.5t-181 177.5q-82 63 -133 110z" />
<glyph unicode="&#xa8;" horiz-adv-x="682" d="M518 1337q45 0 76.5 -32t31.5 -77t-31.5 -76.5t-76.5 -31.5t-77 31.5t-32 76.5t32 77t77 32zM165 1337q46 0 77.5 -32t31.5 -77t-32 -76.5t-76 -31.5q-45 0 -77 31.5t-32 76.5t31.5 77t76.5 32z" />
<glyph unicode="&#xa9;" horiz-adv-x="1556" d="M778 1387q179 0 349 -91.5t265.5 -262t95.5 -355.5q0 -184 -94 -353t-263 -262t-353 -93t-352.5 93t-262.5 262t-94 353q0 185 95.5 355.5t265.5 262t348 91.5zM778 1326q-163 0 -318 -84t-242 -239.5t-87 -324.5q0 -168 85.5 -322t239.5 -240t322 -86t322.5 86t240 240 t85.5 322q0 169 -87 324.5t-242 239.5t-319 84zM1129 1134l20 -280h-39q-36 119 -114.5 177.5t-188.5 58.5q-82 0 -146 -34t-105 -91q-30 -43 -50 -114t-20 -150q0 -212 91 -312.5t240 -100.5q195 0 312 162l37 -19q-139 -203 -383 -203q-200 0 -331.5 129.5t-131.5 314.5 q0 192 140 327.5t358 135.5q46 0 76.5 -6t108.5 -32q25 -8 37 -8q16 0 27 8.5t22 36.5h40z" />
<glyph unicode="&#xaa;" horiz-adv-x="565" d="M340 1180q0 109 -26.5 142.5t-79.5 33.5q-48 0 -71 -21.5t-23 -67.5q0 -45 -16.5 -65.5t-41.5 -20.5q-23 0 -39.5 17t-16.5 43q0 55 56.5 99t177.5 44q92 0 141.5 -31t63 -64t13.5 -109v-218q0 -53 2 -61q3 -13 11 -20q7 -6 13 -6q14 0 58 30v-48q-73 -53 -98 -63.5 t-51 -10.5q-25 0 -44.5 20.5t-28.5 74.5q-63 -45 -117 -68t-98 -23q-53 0 -91.5 38t-38.5 86q0 44 21 77q30 46 107 93q52 31 217 99zM340 1142q-120 -40 -163.5 -88t-43.5 -96q0 -34 25.5 -60t63.5 -26q22 0 51.5 11t66.5 33v226z" />
<glyph unicode="&#xab;" horiz-adv-x="961" d="M866 0l-436 315l436 316v-76l-331 -240l331 -239v-76zM639 -84l-553 399l553 400v-76l-449 -324l449 -323v-76z" />
<glyph unicode="&#xac;" horiz-adv-x="1155" d="M1116 477h-82v324h-993v82h1075v-406z" />
<glyph unicode="&#xad;" horiz-adv-x="1155" d="M1116 639h-1075v82h1075v-82z" />
<glyph unicode="&#xae;" horiz-adv-x="1556" d="M778 1387q179 0 349 -91.5t265.5 -262t95.5 -355.5q0 -184 -94 -353t-263 -262t-353 -93t-352.5 93t-262.5 262t-94 353q0 185 95.5 355.5t265.5 262t348 91.5zM778 1326q-163 0 -318 -84t-242 -239.5t-87 -324.5q0 -168 85.5 -322t239.5 -240t322 -86t322.5 86t240 240 t85.5 322q0 169 -87 324.5t-242 239.5t-319 84zM386 1114h386q145 0 221 -65.5t76 -158.5q0 -76 -51.5 -133.5t-170.5 -88.5l209 -298q38 -53 68 -73q19 -12 53 -15v-33h-184l-294 405h-76v-309q6 -33 28.5 -48t89.5 -15v-33h-367v33q48 0 68 11.5t29 33.5q7 16 7 93v523 q0 74 -3 87q-7 23 -25.5 35.5t-63.5 12.5v36zM623 697q118 0 172.5 23t83.5 64.5t29 94.5q0 81 -56.5 136t-144.5 55q-38 0 -84 -16v-357z" />
<glyph unicode="&#xaf;" horiz-adv-x="682" d="M659 1165h-636v129h636v-129z" />
<glyph unicode="&#xb0;" horiz-adv-x="819" d="M719 1081q0 -132 -86.5 -220.5t-218.5 -88.5q-134 0 -225 88.5t-91 222.5q0 129 90 215t220 86q131 0 221 -86.5t90 -216.5zM631 1081q0 94 -65 158t-160 64q-93 0 -156.5 -63.5t-63.5 -156.5q0 -96 65 -162.5t161 -66.5q92 0 155.5 67t63.5 160z" />
<glyph unicode="&#xb1;" horiz-adv-x="1155" d="M1116 141h-1075v82h496v416h-496v82h496v498h81v-498h498v-82h-498v-416h498v-82z" />
<glyph unicode="&#xb2;" horiz-adv-x="614" d="M575 816l-61 -152h-494v29q247 192 328 313q50 74 50 143q0 61 -41.5 102.5t-104.5 41.5q-57 0 -100 -29.5t-65 -88.5h-45q14 98 77.5 153.5t164.5 55.5q106 0 172.5 -58t66.5 -130q0 -66 -48 -141q-75 -117 -295 -295h186q87 0 115.5 12t48.5 44h45z" />
<glyph unicode="&#xb3;" horiz-adv-x="614" d="M55 1229q36 74 81 108q64 47 149 47q92 0 145 -46t53 -101q0 -68 -105 -155q72 -26 108.5 -74.5t36.5 -107.5q0 -103 -85.5 -177t-246.5 -74q-84 0 -121 24q-26 17 -26 39q0 17 16.5 31t42.5 14q28 0 81 -24t91 -24q56 0 96 39.5t40 92.5q0 45 -26.5 86t-68.5 57 q-60 23 -107 23h-30v28q77 0 129.5 47t52.5 108q0 49 -33 80t-88 31q-85 0 -147 -88z" />
<glyph unicode="&#xb4;" horiz-adv-x="682" d="M563 1464l-293 -346h-34l104 346h223z" />
<glyph unicode="&#xb5;" horiz-adv-x="1180" d="M196 916h164v-533q0 -145 18 -198q13 -40 48 -65t76 -25q118 0 236 134v687h165v-654q0 -100 8 -131q7 -24 24 -37.5t36 -13.5q26 0 44 22q26 31 37 102h42q-9 -121 -63 -176t-135 -55q-78 0 -120 57q-30 43 -38 132q-87 -102 -162 -145.5t-152 -43.5q-53 0 -92 21 q-28 15 -63 63q-1 -31 -1 -46q0 -78 34 -238q13 -61 13 -104q0 -48 -28 -79t-66 -31q-37 0 -62 29t-25 80q0 46 29 165q20 80 22 104q12 102 12 178q0 5 -1 75v726z" />
<glyph unicode="&#xb6;" horiz-adv-x="928" d="M936 1300h-131v-1742h-74v1742h-186v-1742h-74v1042q-479 0 -479 377q0 193 131 291q116 88 315 88h498v-56z" />
<glyph unicode="&#xb7;" horiz-adv-x="512" d="M367 678q0 -46 -32.5 -78.5t-78.5 -32.5q-45 0 -78 33t-33 78q0 48 31.5 79t79.5 31q45 0 78 -32.5t33 -77.5z" />
<glyph unicode="&#xb8;" horiz-adv-x="682" d="M361 16h60l-50 -78q63 -16 94 -54t31 -92q0 -72 -60 -126.5t-155 -54.5q-37 0 -94 7v43q28 -4 48 -4q51 0 86 33.5t35 76.5q0 30 -23 52t-57 22q-10 0 -26 -2z" />
<glyph unicode="&#xb9;" horiz-adv-x="1622" d="M1536 559q0 -88 -41 -147q-47 -68 -131 -68t-131 68q-41 59 -41 147q0 90 40 148q46 67 132 67t132 -67q40 -58 40 -148zM1522 172h-316v45h316v-45zM1522 0h-316v45h316v-45zM1350 1108q0 -104 -74 -104q-70 0 -70 86q0 15 14.5 45t14.5 45q0 67 -84 67q-80 0 -121 -91 q-31 -69 -31 -161v-995h-57q-38 80 -553 1206v-987q0 -219 -170 -219q-66 0 -111 34q-51 38 -51 101q0 109 97 109q90 0 90 -80q0 -21 -17.5 -47t-17.5 -39q0 -35 37 -35q98 0 98 176v1045h-242v28h400l452 -987v690q0 120 49 200q59 97 171 97q78 0 127 -53t49 -131z M1464 559q0 186 -100 186t-100 -186t100 -186t100 186z" />
<glyph unicode="&#xba;" horiz-adv-x="635" d="M324 1384q124 0 205.5 -84.5t81.5 -208.5t-89 -214t-211 -90q-118 0 -200 81.5t-82 206.5q0 138 82.5 223.5t212.5 85.5zM296 1341q-52 0 -89 -45t-37 -143q0 -159 69 -258q39 -57 102 -57q57 0 94.5 44.5t37.5 140.5q0 157 -71 256q-44 62 -106 62z" />
<glyph unicode="&#xbb;" horiz-adv-x="961" d="M874 315l-552 -399v76l448 323l-448 324v76zM530 315l-436 -315v76l332 239l-332 240v76z" />
<glyph unicode="&#xbc;" horiz-adv-x="1536" d="M134 1297l205 87h35v-592q0 -60 6 -74q5 -9 16 -14q16 -8 79 -8v-32h-325v32q64 0 80 7q12 5 17 16t5 73v374q0 71 -5 94q-3 16 -10.5 22.5t-19.5 6.5q-20 0 -67 -20zM1292 1384l-934 -1437h-90l935 1437h89zM1501 224v-81h-108v-182h-117v182h-343v73l376 465h84v-457 h108zM1276 224v316l-260 -316h260z" />
<glyph unicode="&#xbd;" horiz-adv-x="1536" d="M134 1297l205 87h35v-592q0 -60 6 -74q5 -9 16 -14q16 -8 79 -8v-32h-325v32q64 0 80 7q12 5 17 16t5 73v374q0 71 -5 94q-3 16 -10.5 22.5t-19.5 6.5q-20 0 -67 -20zM1268 1384l-935 -1437h-89l935 1437h89zM1494 113l-61 -152h-494v30q247 191 328 312q50 74 50 143 q0 61 -41.5 102.5t-104.5 41.5q-57 0 -100 -29.5t-65 -88.5h-45q14 97 77.5 153t164.5 56q106 0 172.5 -58.5t66.5 -129.5q0 -66 -48 -142q-75 -116 -295 -294h187q86 0 114.5 11.5t48.5 44.5h45z" />
<glyph unicode="&#xbe;" horiz-adv-x="1536" d="M1277 1384l-931 -1437h-90l935 1437h86zM53 1229q36 74 81 108q64 47 149 47q92 0 145 -46t53 -101q0 -68 -105 -155q72 -26 108.5 -74.5t36.5 -107.5q0 -103 -85.5 -177t-246.5 -74q-84 0 -121 24q-26 17 -26 39q0 17 16.5 31t42.5 14q28 0 81 -24t91 -24q56 0 96 39.5 t40 92.5q0 72 -56.5 120t-175.5 46v28q77 0 129.5 47t52.5 108q0 49 -33 80t-88 31q-85 0 -147 -88zM1501 224v-81h-108v-182h-116v182h-344v73l376 465h84v-457h108zM1277 224v316l-260 -316h260z" />
<glyph unicode="&#xbf;" horiz-adv-x="909" d="M452 975q46 0 78.5 -32.5t32.5 -78.5t-32.5 -78.5t-78.5 -32.5t-78.5 32.5t-32.5 78.5t32.5 78.5t78.5 32.5zM441 626h39q-5 -124 -24.5 -196.5t-102 -246.5t-82.5 -288q0 -132 66 -204t170 -72q87 0 137 41t50 90q0 31 -31 84.5t-31 85.5q0 34 24 57t57 23q41 0 76 -41 t35 -110q0 -115 -97.5 -202.5t-266.5 -87.5q-170 0 -270.5 93.5t-100.5 223.5q0 83 29 151q43 98 150 221.5t137 191.5t36 186z" />
<glyph unicode="&#x152;" horiz-adv-x="1821" d="M1104 1282v-535h183q115 0 163 47.5t47 148.5h39v-472h-39q-9 123 -51 162.5t-159 39.5h-183v-448q0 -80 10 -104t33 -37q15 -8 77 -8h104q120 0 167.5 13t98.5 59q75 68 129 192h40l-108 -340h-485h-171q-12 0 -167 -9q-108 -6 -145 -6q-169 0 -308.5 85t-221.5 249.5 t-82 356.5q0 258 141 455q169 237 493 237q23 0 194 -7q140 -5 267 -5h473l12 -298h-32q-24 118 -43 149q-25 40 -77 62q-33 13 -143 13h-256zM912 1042q0 130 -18.5 171.5t-53.5 61.5q-50 29 -127 29q-124 0 -218.5 -73t-142 -223.5t-47.5 -339.5q0 -155 42 -301 t135.5 -229t226.5 -83q76 0 122 25.5t63.5 71.5t17.5 188v702z" />
<glyph unicode="&#x153;" horiz-adv-x="1479" d="M863 573q-2 -25 -2 -38q0 -94 33.5 -196t99.5 -152t145 -50q80 0 141.5 51t97.5 167l33 -17q-36 -193 -125.5 -279t-214.5 -86q-97 0 -165.5 46.5t-103.5 113.5q-62 -80 -141.5 -120t-176.5 -40q-176 0 -296.5 128t-120.5 342q0 229 123.5 364.5t299.5 135.5 q107 0 186 -44t126 -114q59 85 124 122t159 37q147 0 239 -99t87 -272h-548zM453 888q-36 0 -85.5 -26.5t-76.5 -90.5q-37 -83 -37 -232q0 -258 102 -406q62 -90 153 -90q89 0 147.5 74t58.5 261q0 233 -67.5 371.5t-194.5 138.5zM863 638h351q1 70 -24 134q-18 48 -61 76.5 t-90 28.5q-67 0 -118.5 -60t-57.5 -179z" />
<glyph unicode="&#x160;" horiz-adv-x="1139" d="M939 1387v-469h-37q-18 135 -64.5 215t-132.5 127t-178 47q-104 0 -172 -63.5t-68 -144.5q0 -62 43 -113q62 -75 295 -200q190 -102 259.5 -156.5t107 -128.5t37.5 -155q0 -154 -119.5 -265t-307.5 -111q-59 0 -111 9q-31 5 -128.5 36t-123.5 31q-25 0 -39.5 -15 t-21.5 -61h-37v464h37q26 -146 70 -218.5t134.5 -120.5t198.5 -48q125 0 197.5 66t72.5 156q0 50 -27.5 101t-85.5 95q-39 30 -213 127.5t-247.5 155.5t-111.5 128t-38 154q0 146 112 251.5t285 105.5q108 0 229 -53q56 -25 79 -25q26 0 42.5 15.5t26.5 62.5h37zM657 1462 h-184l-190 331h31l273 -212l229 212h30z" />
<glyph unicode="&#x161;" horiz-adv-x="797" d="M656 943v-312h-33q-38 147 -97.5 200t-151.5 53q-70 0 -113 -37t-43 -82q0 -56 32 -96q31 -41 126 -87l146 -71q203 -99 203 -261q0 -125 -94.5 -201t-211.5 -76q-84 0 -192 29q-33 10 -54 10q-23 0 -36 -25h-33v326h33q28 -140 107 -211t177 -71q69 0 112.5 40.5 t43.5 97.5q0 69 -48.5 116t-193.5 119t-190 130q-45 57 -45 144q0 113 77.5 189t200.5 76q54 0 131 -23q51 -15 68 -15q16 0 25 7t21 31h33zM491 1054h-184l-190 331h31l273 -212l229 212h30z" />
<glyph unicode="&#x178;" horiz-adv-x="1479" d="M976 1356h473v-37h-26q-26 0 -76 -23t-91 -66t-101 -140l-327 -515v-340q0 -125 28 -156q38 -42 120 -42h44v-37h-576v37h48q86 0 122 52q22 32 22 146v321l-372 568q-66 100 -89.5 125t-97.5 60q-20 10 -58 10v37h580v-37h-30q-47 0 -86.5 -22t-39.5 -66q0 -36 61 -130 l283 -437l266 418q60 94 60 140q0 28 -14.5 50t-41.5 34.5t-81 12.5v37zM936 1708q45 0 76.5 -32t31.5 -77t-31.5 -76.5t-76.5 -31.5t-77 31.5t-32 76.5t32 77t77 32zM583 1708q46 0 77.5 -32t31.5 -77t-32 -76.5t-76 -31.5q-45 0 -77 31.5t-32 76.5t31.5 77t76.5 32z" />
<glyph unicode="&#x192;" d="M687 875h178l-17 -66h-174q-52 -269 -172 -708q-94 -340 -205 -448q-84 -83 -173 -83q-56 0 -89 30.5t-33 74.5q0 39 23.5 64t53.5 25q26 0 45.5 -18t19.5 -38q0 -22 -14 -38q-10 -12 -10 -19q0 -8 7 -14.5t18 -6.5q20 0 37 10q30 17 59 64t60 177q6 22 86 414 q7 35 123 514h-177l15 66q99 7 124.5 15.5t42.5 31.5q26 34 60 134q73 212 140 272q66 59 147 59q62 0 99.5 -33t37.5 -79q0 -35 -20 -56t-48 -21q-26 0 -44.5 17.5t-18.5 38.5q0 16 11 34.5t11 26.5q0 11 -9 19q-9 7 -26 7q-32 0 -58 -24q-35 -33 -46 -84 q-27 -121 -64 -358z" />
<glyph unicode="&#x2c6;" horiz-adv-x="682" d="M623 1128h-33l-250 211l-250 -211h-33l191 330h184z" />
<glyph unicode="&#x2dc;" horiz-adv-x="682" d="M662 1356q0 -102 -43 -172q-51 -82 -148 -82q-52 0 -178.5 69.5t-142.5 69.5q-76 0 -97 -139h-30v8q0 104 42 172q50 82 148 82q50 0 176.5 -69.5t145.5 -69.5q75 0 96 139h31v-8z" />
<glyph unicode="&#x10d0;" horiz-adv-x="745" d="M702 336q0 -151 -91.5 -243.5t-241.5 -92.5q-131 0 -213 65q-90 71 -90 199q0 44 14 104q18 78 45 78l10 -6v4v-1v-1l-0.5 -0.5t0.5 -1.5q-6 -45 -6 -55q0 -121 84 -224q89 -110 207 -110q100 0 161 71q58 67 58 169q0 153 -111 217q-114 42 -208 82q-111 47 -111 182 q0 168 92 168q18 -12 18 -37q0 -19 -37.5 -85t-37.5 -95q0 -46 76 -46q17 0 50 4.5t50 4.5q141 0 216 -109q66 -94 66 -241z" />
<glyph unicode="&#x10d1;" horiz-adv-x="893" d="M846 369q0 -168 -83 -265q-88 -104 -253 -104t-253 104q-83 97 -83 265q0 166 84 263q88 103 252 105l-6 379q-1 42 -86 69q-128 41 -157 58q-85 52 -85 157q0 22 4 46q-63 -64 -139 -113v68q98 69 197 178l38 -37q-38 -39 -38 -117q0 -56 130 -91q145 -39 175 -99 q25 -50 25 -245q0 -59 -1 -99l-4 -158q283 -83 283 -364zM692 369q0 147 -23 209q-40 108 -159 108q-117 0 -157 -109q-25 -68 -25 -208q0 -144 24 -208q40 -108 158 -108q119 0 159 108q23 62 23 208z" />
<glyph unicode="&#x10d2;" horiz-adv-x="954" d="M893 -348q0 -195 -110 -323q-116 -134 -308 -134q-183 0 -304 139q-116 133 -116 318q0 125 94 279q103 169 216 169l12 -12q-7 -12 -35 -33q-154 -117 -154 -403q0 -157 64 -268q78 -136 223 -136q144 0 221 136q64 113 64 268q0 227 -89 352q-47 66 -164 137 q-89 54 -89 111q0 58 54 177t54 169q0 54 -38.5 88.5t-92.5 34.5q-51 0 -90 -40t-39 -91q21 -27 58 -86v-2q0 -66 -62 -66q-102 0 -102 154q0 83 72 135q64 47 151 47q98 0 171 -59q79 -62 79 -158q0 -78 -52 -166l-89 -151q0 -52 104 -111q138 -79 193 -144 q104 -124 104 -331z" />
<glyph unicode="&#x10d3;" horiz-adv-x="1141" d="M1073 -805h-72q-85 200 -265 377q-210 207 -394 207q-70 0 -98 -64q67 -15 67 -82q0 -69 -73 -69q-41 0 -68 35t-27 77q0 156 207 156q-215 174 -215 453q0 181 107 327q118 160 293 160q61 0 122 -12q48 12 78 12q144 0 243 -112q95 -108 95 -254q0 -154 -65 -257 q-76 -122 -222 -122q-145 0 -251.5 111t-106.5 257q0 219 125 314l-27 2h-12q-113 0 -205 -132q-84 -120 -84 -239q0 -234 168 -367q101 -74 357 -273q219 -176 323 -505zM956 319q0 125 -61 247q-73 145 -186 145q-160 0 -160 -230q0 -127 62 -248q74 -145 188 -145 q81 0 123 79q34 63 34 152z" />
<glyph unicode="&#x10d4;" horiz-adv-x="770" d="M672 -537q0 -116 -95 -194q-90 -74 -208 -74q-146 0 -227 105q-74 95 -74 245q0 215 196 387h72q-80 -100 -103 -206q-16 -73 -16 -232q0 -246 162 -246q66 0 112 46t46 112v1161q0 66 -43 109t-109 43q-65 0 -107 -43.5t-42 -108.5q0 -53 50 -105.5t50 -80.5 q0 -80 -82 -80q-59 0 -93 76q-26 58 -26 127q0 117 75.5 192.5t192.5 75.5q114 0 191.5 -77t77.5 -191v-1041z" />
<glyph unicode="&#x10d5;" horiz-adv-x="772" d="M705 -393q0 -176 -70 -284q-83 -128 -250 -128q-140 0 -228.5 84t-88.5 223q0 224 182 346h51q-76 -67 -93 -172q-7 -43 -7 -202q0 -86 48 -152q53 -74 136 -74q78 0 132 65q52 61 52 140v430q0 91 -53 164q-58 82 -145 82q-13 0 -39 -7t-39 -7q-41 0 -41 35q0 32 41 32 q13 0 39 -7t39 -7q102 0 155 100q43 81 43 193q0 94 -47 170q-55 88 -143 88q-69 0 -116.5 -43t-47.5 -111q0 -35 77 -64.5t77 -86.5q0 -62 -97 -62q-67 0 -105 77q-30 61 -30 134q0 91 64.5 150t156.5 59q146 0 242 -76q105 -82 105 -225q0 -229 -207 -321 q143 -98 183 -238q24 -84 24 -305z" />
<glyph unicode="&#x10d6;" horiz-adv-x="1141" d="M1073 319q0 -141 -74 -227q-78 -92 -217 -92q-136 0 -216 89q-77 85 -77 223v7l7 648q-56 -62 -144 -62q-144 0 -218 100q-66 89 -66 238q0 336 284 336q285 0 285 -326v-10l-8 -668q59 62 153 62q23 0 76 -12q-20 57 -20 108q0 66 32 115q37 57 99 57q104 0 104 -71 q0 -62 -49 -62q-12 0 -43 14.5t-41 14.5q-51 0 -51 -70q0 -76 29 -127q155 -76 155 -285zM504 1243q0 124 -20 183q-34 100 -132 100q-100 0 -132 -100q-17 -53 -17 -183q0 -126 18 -183q32 -102 131 -102q97 0 132 102q20 59 20 183zM924 319q0 121 -19 174q-33 91 -131 91 q-99 0 -130 -91q-17 -50 -17 -174q0 -121 18 -174q31 -92 129 -92q96 0 130 92q20 54 20 174z" />
<glyph unicode="&#x10d7;" horiz-adv-x="1206" d="M1151 422q0 -205 -223 -422h-58q146 186 146 395q0 324 -152 324q-56 0 -109 -45q-48 -40 -73 -96q33 -95 33 -193q0 -160 -78 -266q-87 -119 -242 -119t-242 119q-77 106 -77 266q0 161 77 267q86 120 242 120q164 0 258 -135q86 135 230 135q126 0 202 -116 q66 -101 66 -234zM580 385q0 334 -185 334q-184 0 -184 -334q0 -332 184 -332q185 0 185 332z" />
<glyph unicode="&#x10d8;" horiz-adv-x="936" d="M870 385q0 -233 -231 -385l-37 37q117 125 117 348q0 129 -65 225q-74 109 -197 109q-127 0 -212 -106q-79 -98 -79 -228q0 -138 52 -199q21 -24 97 -58q52 -23 52 -73q0 -55 -72 -55q-115 0 -178 116q-51 94 -51 220q0 191 104 310q109 126 297 126q176 0 289.5 -106 t113.5 -281z" />
<glyph unicode="&#x10d9;" horiz-adv-x="772" d="M672 -315q0 -186 -60 -317q-79 -173 -243 -173q-301 0 -301 369q0 276 268 350v-53q-89 -54 -116 -125q-19 -50 -19 -172q0 -145 19 -205q35 -111 149 -111q113 0 149 111q19 59 19 205v182q0 373 -138 373q-12 0 -53.5 -25.5t-50.5 -25.5q-43 0 -43 51q0 49 43 49 q12 0 36 -12.5t36 -12.5q68 0 115 107q38 87 38 168q0 85 -35 134q-13 18 -65 61q-35 29 -35 61q0 61 68 61q81 0 121 -92q30 -69 30 -162q0 -168 -135 -329q203 -129 203 -467z" />
<glyph unicode="&#x10da;" horiz-adv-x="1688" d="M1597 395q0 -146 -71 -251q-76 -113 -213 -144v53q135 140 135 342q0 98 -31 174q-42 103 -125 103q-80 0 -134 -70q-50 -64 -50 -147q0 -107 102 -187h-288q84 94 84 224q0 94 -48 157q-52 70 -143 70q-89 0 -143 -71q-49 -64 -49 -156q0 -134 84 -224h-285 q100 78 100 201q0 81 -50 140q-52 63 -132 63q-90 0 -150 -91q-53 -80 -53 -175q0 -227 329 -374l646 -288q375 -213 453 -549h-54q-105 221 -476 432q-361 205 -615 205q-121 0 -166 -49q68 -11 68 -74q0 -78 -97 -78q-106 0 -106 101q0 115 252 168q-318 151 -318 471 q0 153 65 251q76 115 222 115q152 0 233 -133q25 76 92.5 122t149.5 46q183 0 242 -168q102 133 239 133q140 0 224 -103q77 -96 77 -239z" />
<glyph unicode="&#x10db;" horiz-adv-x="778" d="M680 385q0 -168 -65 -267q-77 -118 -236 -118q-303 0 -303 385q0 165 67 267q79 120 236 120q110 0 168 -84v637q0 87 -53 144t-140 57q-70 0 -111.5 -53.5t-41.5 -124.5q0 -25 21.5 -70t21.5 -70q0 -67 -62 -67q-106 0 -106 133q0 128 74 214q78 91 204 91 q144 0 237 -103q89 -99 89 -245v-846zM547 385q0 145 -18 210q-34 124 -140 124q-107 0 -142 -124q-18 -64 -18 -210q0 -145 18 -209q35 -123 142 -123q106 0 140 123q18 65 18 209z" />
<glyph unicode="&#x10dc;" horiz-adv-x="821" d="M743 1579q-22 -168 -190 -168q-42 0 -124 36t-124 36q-98 0 -98 -99v-696q55 84 168 84q155 0 234 -121q67 -102 67 -266q0 -168 -65 -267q-77 -118 -236 -118q-303 0 -303 385v899q0 101 103 198t204 97q42 0 122 -29.5t122 -29.5q57 0 86 59h34zM522 385q0 148 -17 210 q-34 124 -140 124q-107 0 -141 -124q-17 -62 -17 -210q0 -144 18 -209q34 -123 140 -123t140 123q17 62 17 209z" />
<glyph unicode="&#x10dd;" horiz-adv-x="1384" d="M1352 227h-211q-82 -131 -213 -227l-41 37q162 174 162 377q0 115 -43 199q-54 106 -160 106q-77 0 -130.5 -60.5t-53.5 -138.5q0 -102 94 -184h-289q94 82 94 184q0 81 -51 139q-54 60 -133 60q-107 0 -161 -105q-42 -81 -42 -200q0 -201 162 -377l-41 -37 q-254 184 -254 403q0 143 90 252q96 117 236 117q143 0 243 -135q103 135 246 135q136 0 235 -113q96 -109 96 -247q0 -45 -13 -86l178 14v-113z" />
<glyph unicode="&#x10de;" horiz-adv-x="780" d="M692 369q0 -142 -89 -252q-95 -117 -234 -117q-124 0 -204 89q-77 86 -77 212l51 21q25 -87 98 -137t166 -50q90 0 156 65.5t66 155.5q0 88 -48 148q-51 65 -137 65q-88 0 -217 -116v303q131 -119 228 -119q76 0 126 60q48 57 48 134q0 139 -139 178l-259 47 q-139 44 -139 197q0 104 50 176q57 82 157 82q45 0 82 -20l-51 -125q-37 41 -90 41q-80 0 -80 -86q0 -65 139 -106q205 -60 258 -93q139 -86 139 -260q0 -162 -133 -258q133 -80 133 -235z" />
<glyph unicode="&#x10df;" horiz-adv-x="719" d="M672 -451q0 -146 -77 -245q-84 -109 -226 -109q-149 0 -229 106q-72 94 -72 248q0 133 70.5 229t197.5 136v-53q-87 -41 -110 -130q-11 -42 -11 -177q0 -140 19 -198q35 -108 143 -108q160 0 160 246v1026q-76 -71 -201 -71q49 -64 49 -154q0 -89 -65 -144 q-61 -51 -152 -51q-53 0 -100 29l43 127q47 -55 110 -55q46 0 79.5 34t33.5 80q0 57 -42 89q-38 30 -97 30l57 103q45 -35 96 -35q189 0 189 186q38 17 67 17t68 -17v-1139z" />
<glyph unicode="&#x10e0;" horiz-adv-x="1182" d="M1126 403q0 -122 -86 -237q-77 -105 -194 -166l-31 43q176 119 176 360q0 107 -39 185q-49 98 -147 98q-68 0 -112 -48.5t-44 -117.5q0 -102 74 -184h-268q75 82 75 184q0 69 -43.5 117.5t-111.5 48.5q-102 0 -151 -96q-38 -74 -38 -187q0 -241 179 -360l-31 -43 q-281 150 -281 424q0 372 248 587q132 114 461 244q248 98 248 187q0 69 -95 69q-147 0 -309 -182l-82 25q79 79 182 132q116 60 214 60q141 0 141 -106q0 -178 -250 -292q-40 -18 -465 -206q-250 -145 -250 -377q91 172 258 172q150 0 236 -133q86 133 233 133 q128 0 217 -104q86 -100 86 -230z" />
<glyph unicode="&#x10e1;" horiz-adv-x="891" d="M838 326q0 -326 -301 -326t-301 326v968q0 24 9 70t9 70q0 92 -84 92t-84 -90q0 -62 33 -142h-76q-10 86 -10 115q0 170 168 170q79 0 123.5 -49t44.5 -129v-1186q0 -68 47.5 -115t115.5 -47q173 0 173 242q0 111 -39 196q-9 19 -74 119q-39 60 -39 111q0 80 81 168 q68 74 154 117v-103q-182 -65 -182 -168q0 -44 60 -104q93 -93 112 -119q60 -84 60 -186z" />
<glyph unicode="&#x10e2;" horiz-adv-x="1284" d="M1208 -59q0 -317 -125 -512q-150 -234 -448 -234q-300 0 -447 233q-122 194 -122 513q0 323 233 608l-186 -94l-15 32l301 150l15 -31q-215 -233 -215 -665q0 -265 86 -449q114 -244 350 -244q234 0 350 245q88 186 88 448q0 238 -47 386q-64 202 -227 306q22 -49 22 -96 q0 -78 -54 -130.5t-132 -52.5q-79 0 -131.5 53t-52.5 132q0 102 88 157q-88 58 -88 160q0 78 53 131t131 53q81 0 133.5 -51.5t52.5 -132.5q0 -100 -92 -162q234 -71 363 -293q116 -200 116 -460zM770 856q0 57 -39 94t-96 37t-94 -37t-37 -94q0 -56 37.5 -94.5t93.5 -38.5 t95.5 38.5t39.5 94.5zM770 539q0 58 -38.5 95.5t-96.5 37.5t-94.5 -37.5t-36.5 -95.5t36.5 -94.5t94.5 -36.5t96.5 36.5t38.5 94.5z" />
<glyph unicode="&#x10e3;" horiz-adv-x="1001" d="M936 -463q0 -143 -87 -240q-90 -102 -231 -102q-156 0 -242 123q-77 108 -77 270q0 316 301 412v-53q-112 -52 -145 -147q-21 -60 -21 -212q0 -159 22 -223q40 -117 167 -117q77 0 128.5 51t51.5 128v1191q0 42 -29.5 71.5t-71.5 29.5t-72 -29.5t-30 -71.5v-350h-117v350 q0 36 -24 61.5t-60 25.5q-22 0 -95.5 -76t-127.5 -76q-60 0 -102.5 47.5t-42.5 108.5q0 63 55 63q22 0 63 -55t70 -55q12 7 87 67q53 43 95 43q116 0 150 -135q6 61 48 98t103 37q118 0 181 -104q53 -87 53 -213v-918z" />
<glyph unicode="&#x10e4;" horiz-adv-x="1112" d="M1059 -295q0 -226 -49 -340q-73 -170 -269 -170q-319 0 -319 363q0 292 235 409v-53q-79 -72 -96 -181q-6 -38 -6 -210q0 -108 38 -182q49 -93 148 -93q185 0 185 316v301q0 96 -37 187q-47 116 -129 116q-27 0 -79.5 -25.5t-78.5 -25.5q-47 0 -47 41q0 38 38 42l-6 -1 q10 -2 72 -2q97 0 159 103q54 89 54 192q0 227 -129 227q-116 0 -163 -115q24 -65 24 -137q0 -130 -72 -212q-76 -87 -204 -87q-131 0 -205 87q-70 81 -70 214q0 131 71 214q75 89 204 89q147 0 221 -110q65 110 194 110q109 0 186 -79.5t77 -188.5q0 -195 -183 -303 q236 -25 236 -496zM469 469q0 250 -141 250q-142 0 -142 -250q0 -248 142 -248q141 0 141 248z" />
<glyph unicode="&#x10e5;" horiz-adv-x="758" d="M672 -512q0 -131 -85.5 -212t-217.5 -81q-149 0 -230 114q-71 100 -71 255q0 325 284 436v-53q-140 -94 -140 -345q0 -28 2 -84q1 -57 1 -85q0 -73 44 -127q46 -58 118 -58q73 0 118 57q42 53 42 128v915q-24 59 -73 104q-56 52 -112 52q-49 0 -97 -67.5t-77 -67.5 q-78 0 -78 82q0 68 58 112q53 41 123 41q147 0 256 -139v1114h135v-2091z" />
<glyph unicode="&#x10e6;" horiz-adv-x="1239" d="M1159 -805h-51q-110 219 -328 406q-248 213 -461 213q-38 0 -94 -17q29 -39 29 -94q0 -72 -82 -72q-86 0 -86 90q0 143 219 143q32 0 66 -3q-163 108 -237 228q-81 132 -81 317q0 152 87 256q92 110 241 110q164 0 225 -151q62 151 225 151q145 0 239 -112 q89 -106 89 -254q0 -261 -233 -406l-35 41q82 76 112 168q23 71 23 197q0 121 -43 205q-55 108 -164 108q-162 0 -162 -184q0 -103 84 -199h-270q84 96 84 199q0 184 -172 184q-116 0 -176 -88q-53 -76 -53 -197q0 -199 144 -353q90 -96 312.5 -233.5t311.5 -230.5 q144 -151 237 -422z" />
<glyph unicode="&#x10e7;" horiz-adv-x="719" d="M672 -410q0 -160 -70 -268q-82 -127 -233 -127q-162 0 -239 134q-62 107 -62 282q0 268 239 399l31 -43q-137 -94 -137 -282v-166q0 -271 168 -271t168 271v1097q0 103 -39 103q-38 0 -71 -91q-51 -142 -68 -170q-54 -91 -146 -91q-63 0 -104 39t-41 102q0 141 182 264 l33 -8q-117 -135 -117 -242q0 -84 74 -84q58 0 98 87q13 29 69 160q47 87 115 87q78 0 119 -91q31 -69 31 -159v-932z" />
<glyph unicode="&#x10e8;" horiz-adv-x="858" d="M772 385q0 -385 -303 -385q-301 0 -301 385q0 164 67 266q79 121 234 121q113 0 168 -84v737q0 42 -29 71.5t-71 29.5q-110 0 -110 -189q0 -27 4.5 -81.5t4.5 -81.5h-117q0 23 2.5 68t2.5 68q0 216 -127 216q-114 0 -164 -140v121q71 72 160 72q108 0 176 -100 q71 100 184 100q111 0 169 -91q50 -77 50 -194v-909zM637 385q0 145 -18 210q-34 124 -140 124t-140 -124q-17 -62 -17 -210q0 -147 17 -209q34 -123 140 -123q105 0 140 123q18 64 18 209z" />
<glyph unicode="&#x10e9;" horiz-adv-x="719" d="M668 371q0 -107 -69 -212q-62 -95 -159 -159l-28 23q106 135 106 327q0 268 -156 268q-163 0 -163 -184v-401h-133v1149q0 152 68 264q81 133 222 133q118 0 193.5 -70.5t75.5 -187.5q0 -297 -426 -449v-282q82 82 186 82q129 0 206 -85.5t77 -215.5zM508 1294 q0 232 -152 232q-74 0 -118 -64q-39 -56 -39 -133v-418q165 57 232 133q77 87 77 250z" />
<glyph unicode="&#x10ea;" horiz-adv-x="1026" d="M948 -418q0 -158 -95 -270q-99 -117 -255 -117q-273 0 -429 304q-126 246 -126 546q0 467 242 727l34 -49q-141 -229 -141 -678q0 -284 76 -495q109 -302 344 -302q217 0 217 334q0 322 -184 322q-127 0 -168 -133v333q72 -133 219 -133q94 0 161 57q72 60 72 152 q0 127 -109 172l-201 62q-109 50 -109 190q0 72 42 120t113 48q70 0 113 -49v-100q-55 53 -141 53q-93 0 -93 -72q0 -62 108 -83q155 -30 202 -60q108 -69 108 -250q0 -228 -217 -272q217 -97 217 -357z" />
<glyph unicode="&#x10eb;" horiz-adv-x="719" d="M657 385q0 -385 -303 -385q-159 0 -236 118q-65 99 -65 267q0 164 67 266q79 121 234 121q113 0 168 -84v649q0 71 -33 125q-38 64 -104 64q-80 0 -199 -99v119q95 33 181 33q136 0 217 -106q73 -96 73 -236v-852zM522 385q0 148 -17 210q-34 124 -140 124 q-107 0 -141 -124q-17 -62 -17 -210q0 -144 18 -209q34 -123 140 -123t140 123q17 62 17 209z" />
<glyph unicode="&#x10ec;" horiz-adv-x="971" d="M940 1354q0 -195 -195 -301l-24 24q100 113 100 262q0 197 -141 197q-59 0 -97 -40t-38 -99q0 -84 76 -154h-236q78 70 78 152q0 61 -41.5 101t-102.5 40q-147 0 -147 -164q0 -112 41 -331l63 -336h476q36 0 36 -62q0 -44 -15 -105q-8 -29 -25 -104l-254 -1225l-19 -14 l-20 14l-369 1952q-14 74 -14 135q0 122 57 198q63 85 182 85q121 0 193 -100q71 100 196 100q105 0 172.5 -61t67.5 -164zM690 651h-405l192 -1188z" />
<glyph unicode="&#x10ed;" horiz-adv-x="954" d="M887 1348q0 -217 -100 -446q-94 -216 -250 -384v-43q168 -78 307 -188l-74 -45q-98 133 -235 192l-15 -366q129 -63 205 -175q80 -116 80 -255q0 -182 -92 -305q-101 -138 -277 -138q-173 0 -270.5 101.5t-97.5 275.5q0 313 268 428v-53q-91 -78 -117 -161 q-18 -58 -18 -200q0 -138 48 -226q60 -112 187 -112q236 0 236 346q0 179 -39 278q-54 137 -197 187v373q-43 -45 -106 -83q-73 -44 -123 -44q-54 0 -96.5 36.5t-42.5 90.5q0 67 46 105q43 36 111 36q101 0 211 -65v686q0 67 -72 81q-15 3 -124 3q-144 0 -144 113 q0 120 97 188h133l-15 -29q-170 0 -170 -96q0 -42 109 -69q147 -36 201 -75q102 -73 102 -225v-12l-14 -504q104 121 186 298q90 195 90 335q0 111 -127 111l197 98q2 -22 2 -63zM436 471q-98 51 -194 51q-123 0 -123 -84t84 -84q137 0 233 117z" />
<glyph unicode="&#x10ee;" horiz-adv-x="915" d="M838 385q0 -385 -301 -385t-301 385v909q0 24 9 70t9 70q0 92 -84 92t-84 -90q0 -62 33 -142h-76q-10 86 -10 115q0 170 168 170q79 0 123.5 -49t44.5 -129v-713q59 84 168 84q4 97 45 173q51 95 137 95t86 -86q0 -65 -53 -65q-59 0 -60 51q-55 0 -88 -60 q-26 -47 -31 -110q265 -35 265 -385zM686 385q0 150 -17 211q-34 123 -143 123q-106 0 -140 -124q-17 -62 -17 -210q0 -147 17 -209q34 -123 140 -123q108 0 142 122q18 64 18 210z" />
<glyph unicode="&#x10ef;" horiz-adv-x="1165" d="M1106 0q0 -94 -55.5 -147.5t-149.5 -53.5q-111 0 -183 66q-61 56 -101 158l-74 190l-271 -201l43 2h22q136 0 220 -92q80 -89 80 -227q0 -195 -176 -339q-152 -124 -361 -161v53q162 58 275 175q129 134 129 290q0 264 -211 264q-43 0 -82 -10l-37 -26l-22 26l380 281 l-151 362q-45 109 -113 109q-35 0 -59.5 -29t-24.5 -65q0 -14 34 -43.5t34 -44.5q0 -50 -62 -50q-41 0 -67 39q-23 34 -23 78q0 78 51 123t130 45q192 0 288 -247q2 -5 72 -195q60 40 214 145q161 113 161 178q0 56 -60 56q-24 0 -118 -56l-33 52q82 67 145 67q47 0 78 -25 q35 -28 35 -73q0 -76 -66 -125l-342 -252q49 -136 95 -245q85 -202 180 -202q38 0 65 32t27 71q0 29 -75 105t-75 108q0 90 115 168l53 -25q-90 -33 -90 -94q0 -27 40 -52q61 -38 76 -54q40 -42 40 -109z" />
<glyph unicode="&#x10f0;" horiz-adv-x="791" d="M737 295q0 -137 -86.5 -216t-224.5 -79q-123 0 -223 70q-2 -158 -150 -205v53q92 31 92 139q0 133 -127 160l236 84q-27 -45 -27 -92q0 -76 64 -119q55 -37 135 -37q111 0 185.5 66t74.5 176q0 101 -63 171.5t-162 70.5q-123 0 -174 -113v268q55 -88 168 -88 q70 0 118 43.5t48 112.5t-48 112t-118 43q-113 0 -168 -88v250q55 -108 164 -108q64 0 108.5 49.5t44.5 114.5q0 99 -84 137q-77 26 -155 51q-84 36 -84 129q0 53 24 129h37q-14 -25 -14 -53q0 -81 85 -129q46 -26 159 -85q85 -64 85 -179t-102 -187q54 -20 87 -75 q32 -51 32 -111q0 -133 -119 -187q182 -77 182 -278z" />
<glyph unicode="&#x10f1;" horiz-adv-x="1169" d="M1087 1016q22 -148 -167 -167q137 -123 153 -226q22 -139 -159 -139h-24q15 0 63 -115q43 -104 46 -123q19 -126 -60 -193q-71 -60 -201 -60q-223 0 -390 176q-148 155 -206 393q-16 -19 -35 -38.5t-42 -39.5l-12 78l51 39q28 28 24 53q-49 306 28 575q93 316 317 316 q130 0 148 -118q26 -161 -169 -495q-83 -142 -213 -298q33 -209 145 -371q138 -201 326 -201q86 0 135 44q52 46 39 132q-1 7 -1 11v7l-6 28q-14 80 -92 182q-23 31 -57 61.5t-80 61.5q-4 28 35 28l85 -52q40 -25 89 -25q108 0 88 119q-5 28 -21 60q-2 5 -45 68 q-15 23 -40.5 54t-62.5 71l34 19q10 0 38 -11q26 -10 39 -10q105 0 87 116l-1 4q-4 36 -88 162q-82 123 -88 169l-3 12q-4 26 -2.5 52t6.5 52q15 68 63 68q13 0 16 -8q1 -4 0 -17t-5 -36q-1 -8 -1.5 -14t0.5 -10q18 -116 115 -255q7 -5 66 -97q27 -42 33 -83zM560 1385 q-14 87 -83 87q-149 0 -219 -294q-29 -125 -38 -235.5t4 -209.5q154 138 258 344q29 57 48 115l-2 8q43 113 32 185z" />
<glyph unicode="&#x10f2;" horiz-adv-x="966" d="M912 -168q0 -65 -76 -65q-84 0 -352 240q-274 -235 -362 -235q-66 0 -66 54q0 32 39 55q28 15 214 88q32 13 62.5 30.5t59.5 40.5q-279 192 -279 365q0 353 325 353q315 0 315 -353q0 -205 -262 -365q72 -72 291 -151q91 -21 91 -52v-5zM670 436q0 240 -193 240 q-200 0 -200 -240q0 -124 42 -188q21 -30 61 -72l99 -102q191 167 191 362z" />
<glyph unicode="&#x10f3;" horiz-adv-x="1032" d="M999 741q0 -141 -211 -361q-192 -201 -338 -277q144 -14 243 -113q107 -107 107 -253q0 -278 -177 -500q-186 -234 -446 -234q-115 0 -115 39q0 17 124 42l109 22q163 33 280 231q103 175 103 365q0 145 -93 237q-88 87 -226 103q-139 -76 -177 -76q-91 0 -91 38 q0 49 61 80q46 25 109 25q40 0 66 -6q403 238 546 563q-284 -93 -605 -93q-77 0 -146 31q-93 40 -93 105q0 59 58 59q48 0 144 -42q97 -42 145 -42h113q248 0 418 69q44 19 69 19q23 0 23 -31z" />
<glyph unicode="&#x10f4;" horiz-adv-x="930" d="M861 -94q1 -235 -120 -365q-111 -119 -295 -120q-397 -1 -398 374q-1 136 50 231q55 108 156 108l5 -2h4q-32 0 -56 -150q-10 -60 -15 -106.5t-4 -81.5q0 -335 246 -333q152 2 219 110q57 98 56 300q-1 421 -235 420v-36h-35v134h34l1 -45q73 0 151 101q80 101 78 196 q0 138 -122 233q-13 10 -69 51t-156 113q-124 106 -124 249q-2 130 90 198q73 56 178 56q105 1 204 -91q110 -101 110 -231q0 -105 -89 -107q-84 0 -86 101q0 19 8 62t8 63q-2 81 -63 123q-50 33 -118 33q-76 0 -129 -46q-64 -52 -63 -142q0 -138 145 -213q43 -23 109.5 -58 t158.5 -83q143 -96 143 -260q1 -151 -61 -242q-50 -73 -171 -130q132 -65 187 -146q68 -98 68 -268z" />
<glyph unicode="&#x10f5;" horiz-adv-x="959" d="M942 594q0 -63 -43 -63q-4 2 -24 7.5t-57 15.5q-14 3 -23 3h-165v-166q0 -184 -33 -275q-53 -144 -216 -144q-135 0 -217 90q-87 96 -87 261q0 214 157 290q106 51 306 51v239q-222 0 -306 37q-157 67 -157 295q0 166 87 259q81 90 217 90q175 0 226 -197q23 -89 23 -376 h165q18 0 46 7t45 7q56 0 56 -51q0 -31 -15 -53q-15 -28 -41 -28q-5 0 -13 1.5t-16.5 3.5t-17 3.5t-12.5 1.5h-197v-239h197q6 0 49 13q4 1 6 1h4q56 0 56 -65v-19zM540 1011v252q0 245 -187 245q-171 0 -171 -258q0 -239 175 -239h183zM540 260v297l-183 -11 q-175 -10 -175 -241q0 -258 171 -258q83 0 133 54q54 58 54 159z" />
<glyph unicode="&#x2013;" d="M1042 453h-1060v73h1060v-73z" />
<glyph unicode="&#x2014;" horiz-adv-x="2152" d="M2066 315h-1980v58h1980v-58z" />
<glyph unicode="&#x2018;" horiz-adv-x="682" d="M494 985q0 -56 -41 -88q-37 -29 -95 -29q-73 0 -124 64q-46 59 -46 135q0 113 77 202q72 85 184 117v-47q-80 -50 -112 -82q-54 -55 -54 -122q0 -62 36 -62q12 0 35 8.5t35 8.5q43 0 74 -31t31 -74z" />
<glyph unicode="&#x2019;" horiz-adv-x="682" d="M494 1188q0 -112 -77 -202q-72 -85 -184 -118v47q85 55 112 82q54 55 54 123q0 62 -37 62q-12 0 -34.5 -8.5t-34.5 -8.5q-43 0 -74 31t-31 74q0 56 41 87q38 29 95 29q77 0 125 -62q45 -57 45 -136z" />
<glyph unicode="&#x201a;" horiz-adv-x="682" d="M494 2q0 -115 -76 -203q-71 -84 -185 -116v47q80 50 112 82q54 55 54 122q0 62 -37 62q-12 0 -34.5 -8t-34.5 -8q-43 0 -74 30.5t-31 73.5q0 117 136 117q76 0 125 -63q45 -57 45 -136z" />
<glyph unicode="&#x201c;" horiz-adv-x="1004" d="M860 874q0 -40 -32 -70t-72 -30q-77 0 -119 69q-35 57 -35 140q0 262 213 367v-45q-139 -95 -139 -248q0 -45 16 -94q29 14 60 14q46 0 77 -28.5t31 -74.5zM401 874q0 -41 -31.5 -70.5t-72.5 -29.5q-77 0 -119 69q-35 57 -35 140q0 262 213 367v-45q-139 -95 -139 -248 q0 -45 16 -94q29 14 60 14q46 0 77 -28.5t31 -74.5z" />
<glyph unicode="&#x201d;" horiz-adv-x="909" d="M846 1188q0 -113 -76 -202q-71 -84 -184 -118v47q82 52 112 82q54 55 54 123q0 62 -37 62q-12 0 -35 -8.5t-35 -8.5q-43 0 -73.5 31t-30.5 74q0 116 135 116q77 0 125 -62q45 -57 45 -136zM369 1188q0 -113 -76 -202q-71 -84 -184 -118v47q81 52 111 82q54 55 54 123 q0 62 -36 62q-12 0 -35 -8.5t-35 -8.5q-43 0 -74 31t-31 74q0 56 41 87q38 29 95 29q77 0 125 -62q45 -57 45 -136z" />
<glyph unicode="&#x201e;" horiz-adv-x="1004" d="M860 -8q0 -260 -213 -365v45q139 90 139 248q0 53 -16 92q-31 -12 -57 -12q-45 0 -78 28t-33 72q0 41 32 71t73 30q76 0 118 -70q35 -58 35 -139zM401 -8q0 -260 -213 -365v45q140 90 140 248q0 47 -17 92q-30 -12 -59 -12q-44 0 -76.5 28.5t-32.5 71.5q0 41 32 71t73 30 q78 0 119 -69q34 -57 34 -140z" />
<glyph unicode="&#x2020;" d="M924 932q0 -43 -32.5 -69.5t-76.5 -26.5q-50 0 -142.5 38.5t-142.5 38.5q9 -163 103 -235q-98 -373 -98 -1081h-46q0 708 -98 1081q94 72 103 235q-50 0 -142.5 -38.5t-142.5 -38.5q-43 0 -76 27t-33 69t33 69t76 27q50 0 142.5 -39t142.5 -39q0 58 -46.5 169t-46.5 169 q0 54 28 91q31 42 83 42q53 0 83 -41q28 -37 28 -92q0 -59 -46.5 -169.5t-46.5 -168.5q50 0 142.5 39t142.5 39q43 0 76 -27t33 -69z" />
<glyph unicode="&#x2021;" d="M885 -18q0 -88 -94 -88q-45 0 -129.5 34.5t-129.5 34.5v-4q0 -50 41 -144.5t41 -144.5q0 -46 -28.5 -79t-73.5 -33t-73.5 33t-28.5 79q0 49 41 146t41 147q-45 0 -129.5 -34.5t-129.5 -34.5q-94 0 -94 88t94 88q45 0 129.5 -35t129.5 -35q-11 111 -97 170q97 115 97 319 q0 205 -97 320q86 59 97 170q-45 0 -129.5 -35t-129.5 -35q-94 0 -94 88t94 88q45 0 129.5 -34.5t129.5 -34.5v4q0 48 -41 145t-41 144t28 79.5t74 32.5t74 -32.5t28 -79.5q0 -49 -41 -146t-41 -147q45 0 129.5 34.5t129.5 34.5q94 0 94 -88t-94 -88q-45 0 -129.5 35 t-129.5 35q11 -111 97 -170q-97 -115 -97 -320q0 -204 97 -319q-86 -59 -97 -170q45 0 129.5 35t129.5 35q94 0 94 -88z" />
<glyph unicode="&#x2022;" horiz-adv-x="717" d="M610 678q0 -108 -72 -180t-180 -72q-107 0 -179.5 72.5t-72.5 179.5t72.5 179.5t179.5 72.5t179.5 -72.5t72.5 -179.5z" />
<glyph unicode="&#x2026;" horiz-adv-x="2048" d="M1819 82q0 -46 -32.5 -78.5t-78.5 -32.5q-45 0 -78 33t-33 78q0 46 32.5 78.5t78.5 32.5q45 0 78 -33t33 -78zM1135 82q0 -46 -32.5 -78.5t-78.5 -32.5q-45 0 -78 33t-33 78q0 46 32.5 78.5t78.5 32.5q45 0 78 -33t33 -78zM451 82q0 -46 -32.5 -78.5t-78.5 -32.5 q-45 0 -78 33t-33 78q0 46 32.5 78.5t78.5 32.5q45 0 78 -33t33 -78z" />
<glyph unicode="&#x2030;" horiz-adv-x="2048" d="M1985 338q0 -145 -70 -249q-80 -118 -219 -118t-219 118q-70 104 -70 249q0 143 72 248q81 119 217 119t217 -119q72 -105 72 -248zM1225 1386l-969 -1417h-90l969 1417h90zM641 1018q0 -145 -70 -249q-80 -118 -219 -118t-219 118q-70 104 -70 249q0 144 71 248 q80 118 218 118t218 -118q71 -104 71 -248zM1317 338q0 -145 -70 -249q-80 -118 -219 -118t-219 118q-70 104 -70 249q0 143 72 248q81 119 217 119t217 -119q72 -105 72 -248zM1825 340q0 311 -127 311q-131 0 -131 -315q0 -311 127 -311q131 0 131 315zM481 1020 q0 311 -127 311q-131 0 -131 -315q0 -311 127 -311q131 0 131 315zM1157 340q0 311 -127 311q-131 0 -131 -315q0 -311 127 -311q131 0 131 315z" />
<glyph unicode="&#x2039;" horiz-adv-x="682" d="M565 -8h-61l-387 471l387 471h61l-248 -471z" />
<glyph unicode="&#x203a;" horiz-adv-x="682" d="M565 463l-387 -471h-61l248 471l-248 471h61z" />
<glyph unicode="&#x2122;" horiz-adv-x="2007" d="M51 1356h728l22 -201h-34q-10 72 -52.5 106.5t-141.5 34.5h-75v-579q0 -84 20 -106.5t86 -25.5v-36h-374v36q65 6 82.5 27.5t17.5 103.5v580h-76q-95 0 -135 -31.5t-55 -109.5h-34zM1156 1356l273 -572l265 572h279v-37q-56 -1 -74.5 -11t-27.5 -32t-9 -92v-468 q0 -85 19 -106t92 -25v-36h-398v36q59 1 79.5 12t30 32t9.5 86v492l-307 -658h-32l-308 649v-482q0 -68 8.5 -88.5t27 -31.5t57.5 -11h36v-36h-306v36q56 0 75.5 10t28.5 31t9 90v466q0 76 -8.5 96t-28.5 30.5t-76 10.5v37h286z" />
<glyph unicode="&#x25fc;" horiz-adv-x="985" d="M0 985h985v-985h-985v985z" />
</font>
</defs>
</svg>
