<?xml version="1.0" standalone="no"?>
<!DOCTYPE svg PUBLIC "-//W3C//DTD SVG 1.1//EN" "http://www.w3.org/Graphics/SVG/1.1/DTD/svg11.dtd" >
<svg xmlns="http://www.w3.org/2000/svg" xmlns:xlink="http://www.w3.org/1999/xlink" version="1.1">
<metadata></metadata>
<defs>
<font id="levregular" horiz-adv-x="500" >
<font-face units-per-em="1000" ascent="750" descent="-250" />
<missing-glyph horiz-adv-x="500" />
<glyph horiz-adv-x="0" />
<glyph horiz-adv-x="0" />
<glyph unicode=" " />
<glyph unicode="&#xc0;" horiz-adv-x="402" d="M9 105q0 15 7 30.5t18.5 28t26.5 20t30 7.5q2 -4 2 -5v-1q-11 -31 -11 -69q0 -19 7.5 -36t20 -30t29.5 -20.5t36 -7.5q26 0 47 10t36 26.5t23 39.5t8 48q0 108 -83 163q-21 12 -42.5 25.5t-39.5 27t-29.5 27.5t-11.5 29q0 16 8 29t21.5 22.5t32 15t38.5 5.5l2 -9 q-35 -16 -35 -46q0 -29 50 -66l70 -44q101 -65 101 -162q0 -35 -16 -67.5t-42.5 -57t-62 -39t-75.5 -14.5q-38 0 -68.5 8t-52 23.5t-33.5 38t-12 50.5zM178 552l99 151q22 33 42 33q13 0 21.5 -8t8.5 -23q0 -16 -20 -35l-123 -113z" />
<glyph unicode="&#xc1;" horiz-adv-x="399" d="M21 105q0 15 7 30.5t18.5 28t26.5 20t30 7.5q2 -4 2 -5v-1q-11 -31 -11 -69q0 -19 7.5 -36t20 -30t29.5 -20.5t36 -7.5q26 0 47 10t36 26.5t23 39.5t8 48q0 108 -83 163q-21 12 -42.5 25.5t-39.5 27t-29.5 27.5t-11.5 29q0 16 8 29t21.5 22.5t32 15t38.5 5.5l2 -9 q-35 -16 -35 -46q0 -29 50 -66l70 -44q101 -65 101 -162q0 -35 -16 -67.5t-42.5 -57t-62 -39t-75.5 -14.5q-38 0 -68.5 8t-52 23.5t-33.5 38t-12 50.5zM305 572h-258v63h258v-63z" />
<glyph unicode="&#xc2;" horiz-adv-x="412" d="M30 105q0 15 7 30.5t18.5 28t26.5 20t30 7.5q2 -4 2 -5v-1q-11 -31 -11 -69q0 -19 7.5 -36t20 -30t29.5 -20.5t36 -7.5q26 0 47 10t36 26.5t23 39.5t8 48q0 108 -83 163q-21 12 -42.5 25.5t-39.5 27t-29.5 27.5t-11.5 29q0 16 8 29t21.5 22.5t32 15t38.5 5.5l2 -9 q-35 -16 -35 -46q0 -29 50 -66l70 -44q101 -65 101 -162q0 -35 -16 -67.5t-42.5 -57t-62 -39t-75.5 -14.5q-38 0 -68.5 8t-52 23.5t-33.5 38t-12 50.5zM218 682q0 10 4 18.5t10.5 15.5t15.5 10.5t19 3.5t19 -3.5t16 -10.5t10.5 -15.5t3.5 -18.5q0 -22 -13.5 -36.5 t-35.5 -14.5q-10 0 -19 4t-15.5 10.5t-10.5 16t-4 20.5zM42 682q0 10 4 18.5t11 15.5t16 10.5t19 3.5t19 -3.5t16 -10.5t11 -15.5t4 -18.5q0 -22 -14.5 -36.5t-35.5 -14.5q-22 0 -36 14.5t-14 36.5z" />
<glyph unicode="&#xc3;" horiz-adv-x="412" d="M26 105q0 15 7 30.5t18.5 28t26.5 20t30 7.5q2 -4 2 -5v-1q-11 -31 -11 -69q0 -19 7.5 -36t20 -30t29.5 -20.5t36 -7.5q26 0 47 10t36 26.5t23 39.5t8 48q0 108 -83 163q-21 12 -42.5 25.5t-39.5 27t-29.5 27.5t-11.5 29q0 16 8 29t21.5 22.5t32 15t38.5 5.5l2 -9 q-35 -16 -35 -46q0 -29 50 -66l70 -44q101 -65 101 -162q0 -35 -16 -67.5t-42.5 -57t-62 -39t-75.5 -14.5q-38 0 -68.5 8t-52 23.5t-33.5 38t-12 50.5zM326 536h-258v62h258v-62zM244 682q0 21 14 35t36 14q10 0 19 -3.5t15.5 -10.5t10 -16t3.5 -19q0 -22 -13 -36t-35 -14 t-36 14t-14 36zM68 682q0 10 4 19t10.5 16t15.5 10.5t20 3.5q10 0 19 -3.5t15.5 -10.5t10.5 -16t4 -19q0 -22 -13.5 -36t-35.5 -14t-36 14t-14 36z" />
<glyph unicode="&#xc4;" horiz-adv-x="424" d="M34 105q0 15 7 30.5t18.5 28t26.5 20t30 7.5q2 -4 2 -5v-1q-11 -31 -11 -69q0 -19 7.5 -36t20 -30t29.5 -20.5t36 -7.5q26 0 47 10t36 26.5t23 39.5t8 48q0 108 -83 163q-21 12 -42.5 25.5t-39.5 27t-29.5 27.5t-11.5 29q0 16 8 29t21.5 22.5t32 15t38.5 5.5l2 -9 q-35 -16 -35 -46q0 -29 50 -66l70 -44q101 -65 101 -162q0 -35 -16 -67.5t-42.5 -57t-62 -39t-75.5 -14.5q-38 0 -68.5 8t-52 23.5t-33.5 38t-12 50.5zM349 670q-20 -135 -145 -135q-126 0 -146 135h25q16 -71 121 -71q103 0 119 71h26z" />
<glyph unicode="&#xc5;" horiz-adv-x="420" d="M31 105q0 15 7 30.5t18.5 28t26.5 20t30 7.5q2 -4 2 -5v-1q-11 -31 -11 -69q0 -19 7.5 -36t20 -30t29.5 -20.5t36 -7.5q26 0 47 10t36 26.5t23 39.5t8 48q0 108 -83 163q-21 12 -42.5 25.5t-39.5 27t-29.5 27.5t-11.5 29q0 16 8 29t21.5 22.5t32 15t38.5 5.5l2 -9 q-35 -16 -35 -46q0 -29 50 -66l70 -44q101 -65 101 -162q0 -35 -16 -67.5t-42.5 -57t-62 -39t-75.5 -14.5q-38 0 -68.5 8t-52 23.5t-33.5 38t-12 50.5zM329 595q-16 72 -120 72t-121 -72h-26q21 136 147 136q125 0 145 -136h-25z" />
<glyph unicode="&#xc6;" horiz-adv-x="534" d="M212 -14q-45 5 -81.5 24t-61.5 48.5t-39 69t-14 86.5q0 50 20 93t54.5 74.5t80.5 49t100 17.5q53 0 97 -16t75.5 -46t49 -72t17.5 -93q0 -40 -15 -78.5t-41 -69.5t-60.5 -53.5t-74.5 -31.5v7q-1 2 25 25q38 35 56.5 82t18.5 106q0 44 -11.5 81.5t-32 63.5t-50 41 t-65.5 15t-64.5 -14t-48.5 -38.5t-30.5 -59.5t-10.5 -78q0 -149 112 -227q-2 -3 -6 -6zM214 552l99 151q22 33 43 33q13 0 21 -8t8 -23q0 -16 -20 -35l-123 -113z" />
<glyph unicode="&#xc7;" horiz-adv-x="539" d="M218 -14q-45 5 -81.5 24t-61.5 48.5t-39 69t-14 86.5q0 50 20 93t54.5 74.5t80.5 49t100 17.5q53 0 97 -16t75.5 -46t49 -72t17.5 -93q0 -40 -15 -78.5t-41 -69.5t-60.5 -53.5t-74.5 -31.5v7q-1 2 25 25q38 35 56.5 82t18.5 106q0 44 -11.5 81.5t-32 63.5t-50 41 t-65.5 15t-64.5 -14t-48.5 -38.5t-30.5 -59.5t-10.5 -78q0 -149 112 -227q-2 -3 -6 -6zM410 499h-257v63h257v-63z" />
<glyph unicode="&#xc8;" horiz-adv-x="465" d="M433 57q0 -86 -13 -148t-40 -101.5t-68.5 -58t-98.5 -18.5q-43 0 -79.5 13.5t-62.5 37.5t-41 56t-15 68q0 75 79 116l10 -3q-10 -34 -10 -94q0 -32 9.5 -60.5t26 -49.5t40 -33t51.5 -12q67 0 99 59.5t32 179.5v157q0 67 -3.5 112t-12.5 68q-23 62 -96 62 q-119 0 -119 -158q0 -47 6 -73l-5 -7q-17 0 -31.5 8.5t-25.5 22t-17 31.5t-6 37q0 35 16.5 67t44.5 57t65 40t79 15q186 0 186 -203v-188zM193 508l99 151q22 33 42 33q13 0 21.5 -8t8.5 -23q0 -16 -20 -35l-123 -113z" />
<glyph unicode="&#xc9;" horiz-adv-x="470" d="M438 57q0 -86 -13 -148t-40 -101.5t-68.5 -58t-98.5 -18.5q-43 0 -79.5 13.5t-62.5 37.5t-41 56t-15 68q0 75 79 116l10 -3q-10 -34 -10 -94q0 -32 9.5 -60.5t26 -49.5t40 -33t51.5 -12q67 0 99 59.5t32 179.5v157q0 67 -3.5 112t-12.5 68q-23 62 -96 62 q-119 0 -119 -158q0 -47 6 -73l-5 -7q-17 0 -31.5 8.5t-25.5 22t-17 31.5t-6 37q0 35 16.5 67t44.5 57t65 40t79 15q186 0 186 -203v-188zM368 525h-258v63h258v-63z" />
<glyph unicode="&#xca;" horiz-adv-x="477" d="M443 57q0 -86 -13 -148t-40 -101.5t-68.5 -58t-98.5 -18.5q-43 0 -79.5 13.5t-62.5 37.5t-41 56t-15 68q0 75 79 116l10 -3q-10 -34 -10 -94q0 -32 9.5 -60.5t26 -49.5t40 -33t51.5 -12q67 0 99 59.5t32 179.5v157q0 67 -3.5 112t-12.5 68q-23 62 -96 62 q-119 0 -119 -158q0 -47 6 -73l-5 -7q-17 0 -31.5 8.5t-25.5 22t-17 31.5t-6 37q0 35 16.5 67t44.5 57t65 40t79 15q186 0 186 -203v-188zM392 666q-20 -135 -145 -135q-126 0 -147 135h26q17 -71 121 -71t120 71h25z" />
<glyph unicode="&#xcb;" horiz-adv-x="480" d="M443 57q0 -86 -13 -148t-40 -101.5t-68.5 -58t-98.5 -18.5q-43 0 -79.5 13.5t-62.5 37.5t-41 56t-15 68q0 75 79 116l10 -3q-10 -34 -10 -94q0 -32 9.5 -60.5t26 -49.5t40 -33t51.5 -12q67 0 99 59.5t32 179.5v157q0 67 -3.5 112t-12.5 68q-23 62 -96 62 q-119 0 -119 -158q0 -47 6 -73l-5 -7q-17 0 -31.5 8.5t-25.5 22t-17 31.5t-6 37q0 35 16.5 67t44.5 57t65 40t79 15q186 0 186 -203v-188zM382 492q-16 70 -120 70q-105 0 -121 -70h-26q21 135 147 135q125 0 146 -135h-26z" />
<glyph unicode="&#xcc;" horiz-adv-x="717" d="M601 395q54 -58 54 -151q0 -100 -91 -199q75 53 124 53l6 -4l-8 -43l-5 -1h-23h-8q0 1 1 1q-49 -8 -84.5 -25t-61.5 -36l-9 -1l-21 16v8q92 82 92 219q0 39 -7.5 71t-20.5 55t-30.5 36t-37.5 13q-45 0 -67.5 -37.5t-22.5 -114.5v-54l-8 -3h-65l-8 3v55q0 152 -85 152 q-21 0 -38.5 -12t-30.5 -34.5t-20.5 -54t-7.5 -69.5q0 -34 6.5 -67t18.5 -62.5t28.5 -53.5t35.5 -39v-8l-21 -20h-9q-32 18 -59 45t-47 59.5t-31 68.5t-11 73q0 44 15 83t41 68.5t59.5 46t70.5 16.5q28 0 51 -8.5t39.5 -25.5t25.5 -40.5t9 -53.5h3h3q0 28 10.5 51.5t28 40.5 t41 26.5t49.5 9.5q74 0 126 -53zM507 535h-357v58h357v-58z" />
<glyph unicode="&#xcd;" horiz-adv-x="713" d="M600 395q54 -58 54 -151q0 -100 -91 -199q75 53 124 53l6 -4l-8 -43l-5 -1h-23h-8q0 1 1 1q-49 -8 -84.5 -25t-61.5 -36l-9 -1l-21 16v8q92 82 92 219q0 39 -7.5 71t-20.5 55t-30.5 36t-37.5 13q-45 0 -67.5 -37.5t-22.5 -114.5v-54l-8 -3h-65l-8 3v55q0 152 -85 152 q-21 0 -38.5 -12t-30.5 -34.5t-20.5 -54t-7.5 -69.5q0 -34 6.5 -67t18.5 -62.5t28.5 -53.5t35.5 -39v-8l-21 -20h-9q-32 18 -59 45t-47 59.5t-31 68.5t-11 73q0 44 15 83t41 68.5t59.5 46t70.5 16.5q28 0 51 -8.5t39.5 -25.5t25.5 -40.5t9 -53.5h3h3q0 28 10.5 51.5t28 40.5 t41 26.5t49.5 9.5q74 0 126 -53zM349 680q0 10 4 19t11 15.5t15.5 10t18.5 3.5q11 0 20 -3.5t15.5 -10t10.5 -15.5t4 -19q0 -22 -14 -36.5t-36 -14.5q-20 0 -34.5 14.5t-14.5 36.5zM174 680q0 10 4 19t10.5 15.5t15.5 10t20 3.5q10 0 19 -3.5t15.5 -10t10.5 -15.5t4 -19 q0 -11 -4 -20.5t-10.5 -16t-15.5 -10.5t-19 -4q-22 0 -36 14.5t-14 36.5zM493 520h-356v58h356v-58z" />
<glyph unicode="&#xce;" horiz-adv-x="718" d="M600 395q54 -58 54 -151q0 -100 -91 -199q75 53 124 53l6 -4l-8 -43l-5 -1h-23h-8q0 1 1 1q-49 -8 -84.5 -25t-61.5 -36l-9 -1l-21 16v8q92 82 92 219q0 39 -7.5 71t-20.5 55t-30.5 36t-37.5 13q-45 0 -67.5 -37.5t-22.5 -114.5v-54l-8 -3h-65l-8 3v55q0 152 -85 152 q-21 0 -38.5 -12t-30.5 -34.5t-20.5 -54t-7.5 -69.5q0 -34 6.5 -67t18.5 -62.5t28.5 -53.5t35.5 -39v-8l-21 -20h-9q-32 18 -59 45t-47 59.5t-31 68.5t-11 73q0 44 15 83t41 68.5t59.5 46t70.5 16.5q28 0 51 -8.5t39.5 -25.5t25.5 -40.5t9 -53.5h3h3q0 28 10.5 51.5t28 40.5 t41 26.5t49.5 9.5q74 0 126 -53zM398 584q0 11 4 19.5t10.5 15t15.5 10.5t19 4t19 -4t16 -10.5t10.5 -15t3.5 -19.5q0 -22 -13.5 -36t-35.5 -14q-10 0 -19 4t-15.5 10.5t-10.5 16t-4 19.5zM223 584q0 21 13.5 35t34.5 14q10 0 19 -4t16 -10.5t11 -15t4 -19.5q0 -22 -14 -36 t-36 -14q-10 0 -19 4t-15.5 10.5t-10 16t-3.5 19.5z" />
<glyph unicode="&#xcf;" horiz-adv-x="718" d="M600 395q54 -58 54 -151q0 -100 -91 -199q75 53 124 53l6 -4l-8 -43l-5 -1h-23h-8q0 1 1 1q-49 -8 -84.5 -25t-61.5 -36l-9 -1l-21 16v8q92 82 92 219q0 39 -7.5 71t-20.5 55t-30.5 36t-37.5 13q-45 0 -67.5 -37.5t-22.5 -114.5v-54l-8 -3h-65l-8 3v55q0 152 -85 152 q-21 0 -38.5 -12t-30.5 -34.5t-20.5 -54t-7.5 -69.5q0 -34 6.5 -67t18.5 -62.5t28.5 -53.5t35.5 -39v-8l-21 -20h-9q-32 18 -59 45t-47 59.5t-31 68.5t-11 73q0 44 15 83t41 68.5t59.5 46t70.5 16.5q28 0 51 -8.5t39.5 -25.5t25.5 -40.5t9 -53.5h3h3q0 28 10.5 51.5t28 40.5 t41 26.5t49.5 9.5q74 0 126 -53zM509 679q-20 -135 -145 -135q-126 0 -146 135h25q16 -71 121 -71q103 0 119 71h26z" />
<glyph unicode="&#xd0;" horiz-adv-x="717" d="M599 395q54 -58 54 -151q0 -100 -91 -199q75 53 124 53l6 -4l-8 -43l-5 -1h-23h-8q0 1 1 1q-49 -8 -84.5 -25t-61.5 -36l-9 -1l-21 16v8q92 82 92 219q0 39 -7.5 71t-20.5 55t-30.5 36t-37.5 13q-45 0 -67.5 -37.5t-22.5 -114.5v-54l-8 -3h-65l-8 3v55q0 152 -85 152 q-21 0 -38.5 -12t-30.5 -34.5t-20.5 -54t-7.5 -69.5q0 -34 6.5 -67t18.5 -62.5t28.5 -53.5t35.5 -39v-8l-21 -20h-9q-32 18 -59 45t-47 59.5t-31 68.5t-11 73q0 44 15 83t41 68.5t59.5 46t70.5 16.5q28 0 51 -8.5t39.5 -25.5t25.5 -40.5t9 -53.5h3h3q0 28 10.5 51.5t28 40.5 t41 26.5t49.5 9.5q74 0 126 -53zM216 530q20 135 145 135q126 0 146 -135h-25q-16 71 -121 71q-103 0 -119 -71h-26z" />
<glyph unicode="&#xd1;" horiz-adv-x="706" d="M604 395q54 -58 54 -151q0 -100 -91 -199q75 53 124 53l6 -4l-8 -43l-5 -1h-23h-8q0 1 1 1q-49 -8 -84.5 -25t-61.5 -36l-9 -1l-21 16v8q92 82 92 219q0 39 -7.5 71t-20.5 55t-30.5 36t-37.5 13q-45 0 -67.5 -37.5t-22.5 -114.5v-54l-8 -3h-65l-8 3v55q0 152 -85 152 q-21 0 -38.5 -12t-30.5 -34.5t-20.5 -54t-7.5 -69.5q0 -34 6.5 -67t18.5 -62.5t28.5 -53.5t35.5 -39v-8l-21 -20h-9q-32 18 -59 45t-47 59.5t-31 68.5t-11 73q0 44 15 83t41 68.5t59.5 46t70.5 16.5q28 0 51 -8.5t39.5 -25.5t25.5 -40.5t9 -53.5h3h3q0 28 10.5 51.5t28 40.5 t41 26.5t49.5 9.5q74 0 126 -53zM287 552l99 151q22 33 42 33q13 0 21.5 -8t8.5 -23q0 -16 -21 -35l-122 -113z" />
<glyph unicode="&#xd2;" horiz-adv-x="729" d="M697 -18q0 -58 -22 -104t-63.5 -78.5t-100.5 -50t-133 -17.5q-284 0 -284 160q0 23 10 43.5t26 35.5t35.5 24t39.5 9l3 -9q-27 -48 -27 -86q0 -31 15.5 -56t42.5 -43t64.5 -27.5t82.5 -9.5q52 0 94.5 14t72.5 40t46.5 63t16.5 84v352q0 82 -63 82q-67 0 -67 -86v-95 l-9 -6h-62l-10 6v83q0 98 -64 98q-27 0 -43 -36q-1 -1 -6 -17t-14 -45q-33 -108 -134 -108q-31 0 -55.5 8t-41.5 24t-26 38t-9 51q0 18 9 37t22.5 34.5t31.5 25t36 9.5h6t6 -1l4 -4q-33 -57 -33 -99q0 -37 16.5 -60t45.5 -23q24 0 40 27q3 7 19 51q23 66 35 83q32 45 97 45 q63 0 90 -53h10q33 53 105 53q144 0 145 -127v-339zM349 543l99 151q22 34 42 34q14 0 22 -8.5t8 -23.5q0 -16 -20 -34l-123 -114z" />
<glyph unicode="&#xd3;" horiz-adv-x="732" d="M700 -18q0 -58 -22 -104t-63.5 -78.5t-100.5 -50t-133 -17.5q-284 0 -284 160q0 23 10 43.5t26 35.5t35.5 24t39.5 9l3 -9q-27 -48 -27 -86q0 -31 15.5 -56t42.5 -43t64.5 -27.5t82.5 -9.5q52 0 94.5 14t72.5 40t46.5 63t16.5 84v352q0 82 -63 82q-67 0 -67 -86v-95 l-9 -6h-62l-10 6v83q0 98 -64 98q-27 0 -43 -36q-1 -1 -6 -17t-14 -45q-33 -108 -134 -108q-31 0 -55.5 8t-41.5 24t-26 38t-9 51q0 18 9 37t22.5 34.5t31.5 25t36 9.5h6t6 -1l4 -4q-33 -57 -33 -99q0 -37 16.5 -60t45.5 -23q24 0 40 27q3 7 19 51q23 66 35 83q32 45 97 45 q63 0 90 -53h10q33 53 105 53q144 0 145 -127v-339zM607 556h-425v63h425v-63z" />
<glyph unicode="&#xd4;" horiz-adv-x="735" d="M702 -18q0 -58 -22 -104t-63.5 -78.5t-100.5 -50t-133 -17.5q-284 0 -284 160q0 23 10 43.5t26 35.5t35.5 24t39.5 9l3 -9q-27 -48 -27 -86q0 -31 15.5 -56t42.5 -43t64.5 -27.5t82.5 -9.5q52 0 94.5 14t72.5 40t46.5 63t16.5 84v352q0 82 -63 82q-67 0 -67 -86v-95 l-9 -6h-62l-10 6v83q0 98 -64 98q-27 0 -43 -36q-1 -1 -6 -17t-14 -45q-33 -108 -134 -108q-31 0 -55.5 8t-41.5 24t-26 38t-9 51q0 18 9 37t22.5 34.5t31.5 25t36 9.5h6t6 -1l4 -4q-33 -57 -33 -99q0 -37 16.5 -60t45.5 -23q24 0 40 27q3 7 19 51q23 66 35 83q32 45 97 45 q63 0 90 -53h10q33 53 105 53q144 0 145 -127v-339zM609 526h-425v63h425v-63zM453 683q0 10 4 19t10.5 15.5t15.5 10t19 3.5q11 0 20 -3.5t15.5 -10t10.5 -15.5t4 -19q0 -22 -14 -36t-36 -14q-10 0 -19 4t-15.5 10.5t-10.5 15.5t-4 20zM247 683q0 10 4 19t10.5 15.5t16 10 t19.5 3.5t19 -3.5t15.5 -10t10.5 -15.5t4 -19q0 -22 -14.5 -36t-34.5 -14q-22 0 -36 14t-14 36z" />
<glyph unicode="&#xd5;" horiz-adv-x="727" d="M699 -18q0 -58 -22 -104t-63.5 -78.5t-100.5 -50t-133 -17.5q-284 0 -284 160q0 23 10 43.5t26 35.5t35.5 24t39.5 9l3 -9q-27 -48 -27 -86q0 -31 15.5 -56t42.5 -43t64.5 -27.5t82.5 -9.5q52 0 94.5 14t72.5 40t46.5 63t16.5 84v352q0 82 -63 82q-67 0 -67 -86v-95 l-9 -6h-62l-10 6v83q0 98 -64 98q-27 0 -43 -36q-1 -1 -6 -17t-14 -45q-33 -108 -134 -108q-31 0 -55.5 8t-41.5 24t-26 38t-9 51q0 18 9 37t22.5 34.5t31.5 25t36 9.5h6t6 -1l4 -4q-33 -57 -33 -99q0 -37 16.5 -60t45.5 -23q24 0 40 27q3 7 19 51q23 66 35 83q32 45 97 45 q63 0 90 -53h10q33 53 105 53q144 0 145 -127v-339zM450 683q0 10 4 19t10.5 15.5t15.5 10t19 3.5q11 0 20 -3.5t15.5 -10t10.5 -15.5t4 -19q0 -22 -14 -36t-36 -14q-10 0 -19 4t-15.5 10.5t-10.5 15.5t-4 20zM244 683q0 10 4 19t10.5 15.5t16 10t19.5 3.5t19 -3.5t15.5 -10 t10.5 -15.5t4 -19q0 -22 -14.5 -36t-34.5 -14q-22 0 -36 14t-14 36z" />
<glyph unicode="&#xd6;" horiz-adv-x="736" d="M704 -18q0 -58 -22 -104t-63.5 -78.5t-100.5 -50t-133 -17.5q-284 0 -284 160q0 23 10 43.5t26 35.5t35.5 24t39.5 9l3 -9q-27 -48 -27 -86q0 -31 15.5 -56t42.5 -43t64.5 -27.5t82.5 -9.5q52 0 94.5 14t72.5 40t46.5 63t16.5 84v352q0 82 -63 82q-67 0 -67 -86v-95 l-9 -6h-62l-10 6v83q0 98 -64 98q-27 0 -43 -36q-1 -1 -6 -17t-14 -45q-33 -108 -134 -108q-31 0 -55.5 8t-41.5 24t-26 38t-9 51q0 18 9 37t22.5 34.5t31.5 25t36 9.5h6t6 -1l4 -4q-33 -57 -33 -99q0 -37 16.5 -60t45.5 -23q24 0 40 27q3 7 19 51q23 66 35 83q32 45 97 45 q63 0 90 -53h10q33 53 105 53q144 0 145 -127v-339zM510 679q-20 -135 -145 -135q-126 0 -146 135h25q16 -71 121 -71q103 0 119 71h26z" />
<glyph unicode="&#xd7;" horiz-adv-x="736" d="M704 -18q0 -58 -22 -104t-63.5 -78.5t-100.5 -50t-133 -17.5q-284 0 -284 160q0 23 10 43.5t26 35.5t35.5 24t39.5 9l3 -9q-27 -48 -27 -86q0 -31 15.5 -56t42.5 -43t64.5 -27.5t82.5 -9.5q52 0 94.5 14t72.5 40t46.5 63t16.5 84v352q0 82 -63 82q-67 0 -67 -86v-95 l-9 -6h-62l-10 6v83q0 98 -64 98q-27 0 -43 -36q-1 -1 -6 -17t-14 -45q-33 -108 -134 -108q-31 0 -55.5 8t-41.5 24t-26 38t-9 51q0 18 9 37t22.5 34.5t31.5 25t36 9.5h6t6 -1l4 -4q-33 -57 -33 -99q0 -37 16.5 -60t45.5 -23q24 0 40 27q3 7 19 51q23 66 35 83q32 45 97 45 q63 0 90 -53h10q33 53 105 53q144 0 145 -127v-339zM484 544q-16 71 -119 71q-105 0 -121 -71h-25q20 135 146 135q125 0 145 -135h-26z" />
<glyph unicode="&#xd8;" horiz-adv-x="718" d="M600 395q54 -58 54 -151q0 -100 -91 -199q75 53 124 53l6 -4l-8 -43l-5 -1h-23h-8q0 1 1 1q-49 -8 -84.5 -25t-61.5 -36l-9 -1l-21 16v8q92 82 92 219q0 39 -7.5 71t-20.5 55t-30.5 36t-37.5 13q-45 0 -67.5 -37.5t-22.5 -114.5v-54l-8 -3h-65l-8 3v55q0 152 -85 152 q-21 0 -38.5 -12t-30.5 -34.5t-20.5 -54t-7.5 -69.5q0 -34 6.5 -67t18.5 -62.5t28.5 -53.5t35.5 -39v-8l-21 -20h-9q-32 18 -59 45t-47 59.5t-31 68.5t-11 73q0 44 15 83t41 68.5t59.5 46t70.5 16.5q28 0 51 -8.5t39.5 -25.5t25.5 -40.5t9 -53.5h3h3q0 28 10.5 51.5t28 40.5 t41 26.5t49.5 9.5q74 0 126 -53zM398 584q0 11 4 19.5t10.5 15t15.5 10.5t19 4t19 -4t16 -10.5t10.5 -15t3.5 -19.5q0 -22 -13.5 -36t-35.5 -14q-10 0 -19 4t-15.5 10.5t-10.5 16t-4 19.5zM223 584q0 21 13.5 35t34.5 14q10 0 19 -4t16 -10.5t11 -15t4 -19.5q0 -22 -14 -36 t-36 -14q-10 0 -19 4t-15.5 10.5t-10 16t-3.5 19.5z" />
<glyph unicode="&#xd9;" horiz-adv-x="735" d="M700 -18q0 -58 -22 -104t-63.5 -78.5t-100.5 -50t-133 -17.5q-284 0 -284 160q0 23 10 43.5t26 35.5t35.5 24t39.5 9l3 -9q-27 -48 -27 -86q0 -31 15.5 -56t42.5 -43t64.5 -27.5t82.5 -9.5q52 0 94.5 14t72.5 40t46.5 63t16.5 84v352q0 82 -63 82q-67 0 -67 -86v-95 l-9 -6h-62l-10 6v83q0 98 -64 98q-27 0 -43 -36q-1 -1 -6 -17t-14 -45q-33 -108 -134 -108q-31 0 -55.5 8t-41.5 24t-26 38t-9 51q0 18 9 37t22.5 34.5t31.5 25t36 9.5h6t6 -1l4 -4q-33 -57 -33 -99q0 -37 16.5 -60t45.5 -23q24 0 40 27q3 7 19 51q23 66 35 83q32 45 97 45 q63 0 90 -53h10q33 53 105 53q144 0 145 -127v-339zM556 563l-111 102l-112 -102h-28l110 168h57l111 -168h-27z" />
<glyph unicode="&#x102;" horiz-adv-x="548" d="M223 -14q-45 5 -81.5 24t-61.5 48.5t-39 69t-14 86.5q0 50 20 93t54.5 74.5t80.5 49t100 17.5q53 0 97 -16t75.5 -46t49 -72t17.5 -93q0 -40 -15 -78.5t-41 -69.5t-60.5 -53.5t-74.5 -31.5v7q-1 2 25 25q38 35 56.5 82t18.5 106q0 44 -11.5 81.5t-32 63.5t-50 41 t-65.5 15t-64.5 -14t-48.5 -38.5t-30.5 -59.5t-10.5 -78q0 -149 112 -227q-2 -3 -6 -6zM412 637q-20 -135 -145 -135q-126 0 -146 135h25q16 -70 121 -70q103 0 119 70h26z" />
<glyph unicode="&#x139;" horiz-adv-x="547" d="M222 -14q-45 5 -81.5 24t-61.5 48.5t-39 69t-14 86.5q0 50 20 93t54.5 74.5t80.5 49t100 17.5q53 0 97 -16t75.5 -46t49 -72t17.5 -93q0 -40 -15 -78.5t-41 -69.5t-60.5 -53.5t-74.5 -31.5v7q-1 2 25 25q38 35 56.5 82t18.5 106q0 44 -11.5 81.5t-32 63.5t-50 41 t-65.5 15t-64.5 -14t-48.5 -38.5t-30.5 -59.5t-10.5 -78q0 -149 112 -227q-2 -3 -6 -6zM388 504q-16 72 -120 72t-121 -72h-26q21 136 147 136q125 0 145 -136h-25z" />
<glyph unicode="&#x163;" horiz-adv-x="489" d="M469 -95q0 -76 -74 -128q-66 -47 -146 -47q-54 0 -96.5 12.5t-72 36t-45.5 57.5t-16 77q0 98 88 157l164 84q89 49 89 124q0 131 -104 131q-27 0 -48.5 -10t-37 -28t-23 -44t-7.5 -57q0 -22 4 -43l-6 -9q-15 0 -28 7.5t-23.5 19t-16.5 26.5t-6 30q0 34 14 61.5t40 46.5 t62 29t80 10t78.5 -11t58 -33t36.5 -54t13 -73q0 -98 -88 -159q-41 -22 -81 -43t-81 -43q-87 -51 -87 -122q0 -33 9.5 -58.5t27 -44t42.5 -28t57 -9.5t59 13.5t46.5 37t30.5 55t11 66.5q0 48 -6 78l11 2q72 -25 72 -117zM352 559h-258v62h258v-62z" />
<glyph unicode="&#x25fc;" d="M0 0v0v0v0v0z" />
</font>
</defs>
</svg>
