<?xml version="1.0" standalone="no"?>
<!DOCTYPE svg PUBLIC "-//W3C//DTD SVG 1.1//EN" "http://www.w3.org/Graphics/SVG/1.1/DTD/svg11.dtd" >
<svg>
<metadata>
Created by FontForge 20120731 at Thu Nov  6 23:28:40 2014
 By Orthosie Webhosting
Copyright (c) 1999 by . All rights reserved.
</metadata>
<defs>
<font id="Kartveluri_NormRegular" horiz-adv-x="1122" >
  <font-face 
    font-family="Kartveluri_NormRegular"
    font-weight="300"
    font-stretch="normal"
    units-per-em="2048"
    panose-1="2 0 5 3 0 0 0 2 0 3"
    ascent="1638"
    descent="-410"
    x-height="946"
    cap-height="1370"
    bbox="-84 -785.01 2268.53 1523"
    underline-thickness="0"
    underline-position="34"
    unicode-range="U+0020-00F5"
  />
<missing-glyph horiz-adv-x="1024" 
d="M128 0v1424h768v-1424h-768zM256 128h512v1168h-512v-1168z" />
    <glyph glyph-name=".notdef" horiz-adv-x="1024" 
d="M128 0v1424h768v-1424h-768zM256 128h512v1168h-512v-1168z" />
    <glyph glyph-name=".null" horiz-adv-x="0" 
 />
    <glyph glyph-name="nonmarkingreturn" horiz-adv-x="719" 
 />
    <glyph glyph-name="space" unicode=" " horiz-adv-x="719" 
 />
    <glyph glyph-name="exclam" unicode="!" horiz-adv-x="531" 
d="M267 1466q36 0 54.5 -23t17.5 -69l-29 -1015h-88l-27 1015q-2 91 72 92zM172 66q-1 19 26 55.5t69 36.5q37 0 64 -27.5t28 -64.5q1 -38 -26.5 -66t-65.5 -29q-20 0 -67 30q-27 30 -28 65z" />
    <glyph glyph-name="quotedbl" unicode="&#x22;" horiz-adv-x="833" 
d="M689 1474q-132 -152 -133 -254l6 -55l23 2q32 3 63 -19q27 -19 27 -59q0 -56 -38 -84q-21 -15 -55 -15q-108 0 -108 146q0 197 182 373zM359 1474q-132 -152 -133 -254l6 -55l22 2q37 0 67 -23q24 -18 24 -55q0 -56 -38 -84q-21 -15 -55 -15q-108 0 -108 146
q0 197 182 373z" />
    <glyph glyph-name="numbersign" unicode="#" horiz-adv-x="2354" 
d="M181 0v1523l1068 -1262v1176h110v-1495l-190 226l-875 1048v-1216h-113zM1909 216q-120 -5 -202 55q-76 56 -117 153q-24 58 -30 92l-7 43l-3 44q-3 39 7 90q9 46 25 86q85 209 327 211q76 1 145 -28q135 -56 186 -211q17 -52 21 -78l5 -34l2 -36q4 -74 -22 -155
q-43 -134 -183 -201l-31 -11l-41 -12l-38 -6zM1909 304q153 -1 216 150q20 47 24 73l6 36l2 40q5 98 -66 203q-65 96 -182 96q-138 0 -217 -139l-22 -64l-5 -32l-2 -37l2 -27q9 -123 57 -204q56 -94 187 -95zM1601 0v88h617v-88h-617z" />
    <glyph glyph-name="dollar" unicode="$" horiz-adv-x="962" 
d="M332 898q-178 68 -178 265q0 79 41 148q63 107 197 144l44 8l52 3q102 6 187 -49q147 -95 147 -302h-121q0 261 -209 263q-94 1 -154 -62t-61 -157q-1 -128 129 -182l199 -61l40 -15l20 -9q12 -4 20 -11q76 -42 124 -109q51 -72 52 -181q2 -230 -231 -330
q64 -30 139 -108q26 -33 39.5 -90t13.5 -94q1 -88 -39.5 -155.5t-118.5 -105.5l-32 -12l-49 -16l-46 -7l-49 -3q-121 -7 -206 49q-73 48 -117 134l-12 34l-12 48l-5 31l-2 34h123q0 -240 235 -240q147 0 193 127q14 38 14 74q1 74 -37.5 127.5t-91.5 75.5l-55 23l-22 7
l-42 13q-349 108 -350 371q0 235 231 320zM484 324q112 0 182 72.5t70 185.5q0 104 -74 180t-178 77q-71 1 -123 -25q-61 -30 -98.5 -96t-38.5 -136q-1 -112 73 -185t187 -73z" />
    <glyph glyph-name="percent" unicode="%" horiz-adv-x="1696" 
d="M345 -43l848 1523h101l-849 -1523h-100zM86 1136q0 175 160 277q82 52 170 53q176 2 280 -164q49 -78 50 -166q1 -172 -164 -281q-78 -51 -166 -51q-140 0 -235 96t-95 236zM187 1136q-1 -99 64.5 -171t164.5 -73q98 -1 165 73q64 72 65 171t-65.5 170t-164.5 72
t-164 -73q-64 -70 -65 -169zM947 330q-1 193 172 288q77 42 160 42q181 0 281 -162q49 -79 50 -168q1 -79 -44 -157q-99 -172 -287 -173q-138 -1 -234.5 95.5t-97.5 234.5zM1048 330q-2 -135 114 -209q51 -33 117 -33q97 0 163 72t67 170q1 100 -65 170.5t-165 71.5
q-119 1 -193 -116q-37 -59 -38 -126z" />
    <glyph glyph-name="quotesingle" unicode="'" horiz-adv-x="503" 
d="M144 1021q133 136 133 263v21l-4 26l-23 -2q-12 -1 -65 21q-27 23 -27 57q0 41 26.5 69t67.5 28q106 1 107 -144q0 -63 -10 -93q-9 -44 -34 -95q-38 -78 -136 -185z" />
    <glyph glyph-name="parenleft" unicode="(" horiz-adv-x="732" 
d="M295 416q-5 -146 42 -340q38 -157 122 -326q50 -101 73 -132l86 -116q57 -77 57 -95q0 -39 -39 -39q-57 0 -138 95q-52 61 -78 108l-46 83l-31 58l-43 99l-25 63l-55 181q-48 158 -48 361q0 133 10 204q7 47 37 157q58 210 123 345q164 342 294 344q39 1 39 -39
q0 -17 -14 -36l-95 -127l-36 -53l-23 -40l-48 -86q-68 -121 -120 -338q-27 -110 -33 -172l-8 -78z" />
    <glyph glyph-name="parenright" unicode=")" horiz-adv-x="833" 
d="M437 416l-3 100l-2 22l-8 64l-11 77l-6 22l-19 77l-10 34q-13 44 -42 122q-18 40 -57 129l-18 42l-16 27l-16 30l-21 33l-43 69q-26 42 -46 63l-54 73l-7 27q0 39 37 39q44 0 125 -87q86 -92 168 -261q73 -149 123 -351q29 -115 36 -184l9 -85l4 -82q1 -21 1 -42
q0 -141 -50 -318q-13 -49 -54 -178l-18 -51q-9 -24 -16 -37l-34 -77q-28 -63 -76 -139l-19 -30l-48 -68l-12 -13q-87 -94 -139 -95q-36 -1 -37 39q0 17 10 31l51 70q56 76 78 112q49 74 83 151l29 65l27 64l25 70l17 52l27 114l18 113z" />
    <glyph glyph-name="comma" unicode="," horiz-adv-x="503" 
d="M144 -339q133 136 133 263v21l-4 26l-23 -2q-12 -1 -65 21q-27 23 -27 57q0 41 26.5 69t67.5 28q106 1 107 -144q0 -63 -10 -93q-9 -44 -34 -95q-38 -78 -136 -185z" />
    <glyph glyph-name="hyphen" unicode="-" horiz-adv-x="632" 
d="M86 459h460v-120h-460v120z" />
    <glyph glyph-name="hyphen" unicode="&#x2010;" horiz-adv-x="632" 
d="M86 459h460v-120h-460v120z" />
    <glyph glyph-name="period" unicode="." horiz-adv-x="531" 
d="M172 66q-1 37 28.5 64t66.5 28q36 1 63.5 -27t28.5 -65q1 -38 -26.5 -66t-65.5 -29q-39 -1 -66.5 27.5t-28.5 67.5z" />
    <glyph glyph-name="slash" unicode="/" horiz-adv-x="569" 
d="M0 -25l425 1516h144l-424 -1516h-145z" />
    <glyph glyph-name="zero" unicode="0" horiz-adv-x="1120" 
d="M560 -29q-172 0 -263 99q-89 96 -150 282q-13 57 -30 174l-7 89l-3 97q-7 215 48 397q48 161 115 230t151 105l70 16q26 6 69 6q131 0 217 -62q101 -72 144 -176l21 -50l19 -58l16 -61l13 -69l8 -65l8 -71l2 -78l3 -64q7 -140 -19 -292q-19 -112 -67 -211
q-116 -238 -365 -238zM560 60q196 -1 282 249q58 168 58 403q0 54 -15 243q-1 23 -5 63q-2 19 -5.5 31t-9.5 20q-4 18 -33 98q-77 210 -272 211q-193 1 -282 -239l-22 -90l-25 -126l-8 -105l-3 -106q-3 -93 15 -245q10 -83 19 -113l13 -42l21 -55q75 -196 272 -197z" />
    <glyph glyph-name="one" unicode="1" horiz-adv-x="1120" 
d="M560 0v1238l-256 -258v129l328 328h41v-1437h-113z" />
    <glyph glyph-name="two" unicode="2" 
d="M995 88v-88h-884l584 639q88 103 123 198l17 46l14 50q8 27 9 52l3 53q7 127 -73 231q-73 94 -201 95q-104 1 -183 -51q-87 -57 -123 -145l-18 -44l-13 -46l-9 -50l-3 -54h-111l1 39q1 28 4 40l6 38l4 19l7 23q24 79 71 143q128 175 377 176q118 1 205.5 -51.5
t135.5 -152.5q26 -55 36 -116l8 -51l5 -45q0 -177 -149 -381q-47 -64 -85 -109l-46 -54l-51 -57l-133 -145l-191 -202h663z" />
    <glyph glyph-name="three" unicode="3" 
d="M205 359l1 -20l3 -24l7 -27l4 -17l7 -18q28 -73 97 -130q76 -63 217 -63q216 0 307 155q43 74 44 167q1 159 -142 269q-43 26 -110 39q-14 2 -52 8q-2 0 -44 5h-68v89h41q173 0 241 62q100 61 101 225q1 135 -87 212q-83 73 -220 73q-157 0 -225 -84q-58 -72 -89 -191
h-100q0 31 7 58l8 31l15 38q40 102 126 161q34 24 77 41q47 19 85 24l51 7l55 3q101 6 204 -40q92 -40 142 -121q29 -47 39 -102l7 -40q6 -34 6 -52q0 -153 -79 -241q-45 -50 -151 -103v-4q273 -66 275 -359q1 -245 -223 -362q-110 -57 -245 -57q-144 0 -241 56
q-107 61 -145 146l-19 42l-19 50q-12 45 -12 94h104z" />
    <glyph glyph-name="four" unicode="4" 
d="M726 0v345h-674l32 45l712 1047h43v-1004h137v-88h-137v-345h-113zM726 433v730l-492 -730h492z" />
    <glyph glyph-name="five" unicode="5" horiz-adv-x="1124" 
d="M929 1349h-486l-115 -469q106 45 195 41l69 -3h18l14 -4l32 -7q57 -12 114 -45q105 -60 159 -165q29 -56 39 -109l12 -62l4 -67q7 -126 -59 -251q-126 -237 -410 -237q-287 0 -435 283l90 48q110 -238 337 -240q225 -2 322 198l15 43l17 54l8 51l3 58q8 154 -95 265
q-95 102 -258 102q-164 0 -295 -132l-37 11l172 725h570v-88z" />
    <glyph glyph-name="six" unicode="6" 
d="M716 1480l90 -55l-429 -615l38 17l47 15l47 8l53 3q117 7 225 -52q98 -53 157.5 -156t60.5 -216q1 -117 -52 -222q-55 -109 -151 -171q-99 -64 -240 -65q-81 -1 -160 25l-46 15l-21 10l-25 13q-39 21 -101 85q-93 97 -94 289q0 79 18 157l21 59l9 20l20 36l84 134z
M560 60q189 -2 282 159q49 85 50 195q1 105 -44 186q-89 159 -288 161q-191 2 -286 -161q-48 -82 -48 -186q0 -113 33 -178q36 -72 128 -126q85 -49 173 -50z" />
    <glyph glyph-name="seven" unicode="7" 
d="M224 0l147 302l503 1047h-745v88h904l-209 -426l-508 -1048z" />
    <glyph glyph-name="eight" unicode="8" horiz-adv-x="1124" 
d="M560 -29q-276 -2 -385 207q-31 59 -39 109l-9 55l-4 56q-5 74 38 165q68 143 247 206v4q-111 28 -175 117q-60 86 -61 203q-1 151 111 265q20 20 56 40l30 13l39 16q51 12 152 25q164 1 276 -93.5t112 -265.5q0 -241 -236 -320v-4q38 -9 76 -28q22 -11 33 -19l36 -27
q64 -48 105 -131q21 -43 27 -79l7 -43l3 -44q7 -106 -52 -217q-52 -98 -151 -153.5t-236 -56.5zM560 806q77 0 136 32q102 56 135 168l7 36l3 39q6 82 -35 144q-34 64 -100 102q-37 21 -68 27l-37 7l-41 3q-72 5 -135 -32q-64 -30 -106 -100q-24 -40 -30 -71l-7 -38l-3 -42
q-5 -69 33 -135q34 -60 103 -100q25 -15 69 -30q50 -10 76 -10zM560 60q113 -1 197 63q129 99 129 273q0 190 -156 279q-36 20 -85 30l-46 9l-39 4q-192 0 -284 -159q-42 -73 -42 -163q0 -93 35 -164q37 -75 115 -123t176 -49z" />
    <glyph glyph-name="nine" unicode="9" 
d="M402 -37l-90 58l428 613q-41 -22 -83 -30l-50 -9l-51 -4q-15 -1 -29 -1q-100 0 -200.5 54t-156.5 154q-28 51 -39 101l-12 57l-4 59q-2 29 12 118l15 56l10 28l13 27q47 98 154 165q102 64 239 65q258 1 392 -214q37 -59 55 -224q0 -115 -39 -204l-21 -48l-12 -25
l-14 -24q-31 -54 -66 -105zM560 1384q-152 0 -244 -103q-90 -99 -90 -252q0 -135 44 -186q86 -160 290 -160q212 0 294 172q37 78 38 174q2 206 -153 304q-80 51 -179 51z" />
    <glyph glyph-name="colon" unicode=":" horiz-adv-x="531" 
d="M172 654q-1 38 28 64.5t67 27.5q36 1 63.5 -27t28.5 -65q0 -12 -24 -65q-24 -28 -68 -29q-38 -1 -66 27.5t-29 66.5zM172 66q-1 37 28.5 64t66.5 28q36 1 63.5 -27t28.5 -65q1 -38 -26.5 -66t-65.5 -29q-39 -1 -66.5 27.5t-28.5 67.5z" />
    <glyph glyph-name="semicolon" unicode=";" horiz-adv-x="503" 
d="M158 654q0 19 5 28l8 18l13 15q26 30 68 31q38 1 65.5 -26.5t27.5 -65.5q0 -92 -93 -94q-18 0 -67 30q-27 30 -27 64zM144 -339q133 136 133 263v21l-4 26l-23 -2q-12 -1 -65 21q-27 23 -27 57q0 41 26.5 69t67.5 28q106 1 107 -144q0 -63 -10 -93q-9 -44 -34 -95
q-38 -78 -136 -185z" />
    <glyph glyph-name="equal" unicode="=" horiz-adv-x="2154" 
d="M403 559h1348v-121h-1348v121zM1751 932v-121h-1348v121h1348z" />
    <glyph glyph-name="question" unicode="?" horiz-adv-x="906" 
d="M369 359q0 64 13 119q4 19 15 54l9 23l14 31q15 46 28 63l22 39q5 10 20 36q7 11 42 62q117 171 117 323q0 109 -46 186q-55 91 -158 91q-38 0 -98 -27q-46 -30 -74 -96q-26 -59 -27 -119q-1 -51 26 -101q32 -59 79 -59q76 0 70 101l-2 32l-1 29q-2 51 37 51q31 0 42 -41
l12 -45l4 -49q4 -52 -41 -109q-41 -51 -113 -51q-104 0 -162 69q-53 65 -53 171q0 206 148 286q69 37 157 38q191 2 274 -181q39 -86 40 -161q1 -90 -42 -208l-21 -44l-28 -50q-26 -46 -67 -104q-60 -84 -76 -116l-22 -43l-22 -59l-28 -141h-88zM320 66q-1 19 26 55.5
t66 36.5q38 0 66 -27t29 -65q1 -39 -27 -66.5t-68 -28.5q-17 0 -64 30q-27 30 -28 65z" />
    <glyph glyph-name="at" unicode="@" horiz-adv-x="2009" 
d="M1335 344l-8 -55q0 -57 19 -84q16 -23 40 -39l21 -6q16 0 18 -2h12l18 1l18 3l17 6l32 12l15 7l19 10q91 48 180 186q87 135 87 326q0 332 -247 537q-231 192 -570 192q-348 0 -587 -255q-233 -250 -233 -601v-65l4 -18l5 -39l2 -20l6 -22q80 -293 258 -480
q209 -219 553 -219q45 0 174 15q136 16 231 73l70 42q22 9 50 34l28 25l45 -60l-74 -47l-90 -54l-76 -33l-37 -14l-41 -12q-80 -23 -142 -30l-65 -7l-67 -3q-392 -18 -658 289q-113 130 -180 307t-67 340v58l4 28v28l4 19l8 41q29 146 93 267q70 131 182 249
q223 235 598 235h40q136 0 281 -54q171 -64 303 -159q280 -202 266 -587l-2 -84l-4 -21q-42 -219 -147 -357q-123 -161 -336 -161h-36l-21 4q-10 0 -22 4l-30 10l-36 18l-35 23q-11 6 -62 70l-18 -12l-21 -17l-39 -24q-89 -55 -211 -56t-225.5 93.5t-103.5 294.5v28
q0 17 4 29q20 217 173.5 363.5t369.5 146.5q31 0 35 -2q22 0 42 -7q11 -3 76 -36l22 -15l23 -22l43 -51l33 96h170zM1286 799q-12 69 -67 137q-48 48 -111 57q-10 0 -12 2h-9q-20 0 -32 -4q-22 0 -33 -8q-94 -33 -178 -166q-22 -36 -70 -148l-13 -43l-10 -48l-6 -46l-3 -67
l-3 -19l2 -28v-29l2 -29q1 -19 7 -36q4 -21 14 -41q11 -34 49 -72q36 -30 102 -31q60 -1 140 39q36 18 92 88z" />
    <glyph glyph-name="A" unicode="A" horiz-adv-x="1468" 
d="M362 410l-137 -338h183v-72h-424v72h147l553 1321h82l600 -1321h143v-72h-516v72h185l-160 338h-656zM696 1139l-8 53h-12l-8 -53l-271 -641h586z" />
    <glyph glyph-name="B" unicode="B" horiz-adv-x="1325" 
d="M92 1370h660q140 0 257 -73q134 -83 134 -216v-16l-2 -16q0 -100 -97 -209q-84 -95 -215 -95h-30v-12h20q16 0 19 -2q16 0 39 -6q150 -23 237 -102q108 -81 109 -265q1 -179 -151 -276q-128 -82 -318 -82h-662v72h170v1226h-170v72zM723 86q120 0 210 77q94 80 95 199
q1 106 -84 224q-31 43 -113 72q-49 17 -82 21l-44 5l-50 2h-215v-600h283zM688 772q110 0 190 74.5t80 183.5v12l-2 21l-6 37q-9 57 -79 123q-65 61 -193 61h-238v-512h248z" />
    <glyph glyph-name="C" unicode="C" horiz-adv-x="1571" 
d="M1409 991h-106q0 153 -129 240q-113 76 -273 76q-266 0 -426 -170q-55 -59 -118 -195q-13 -38 -30 -117l-7 -63l-3 -68q-9 -213 153 -427q152 -201 437 -201q71 0 146 9l25 3l18 4l24 7q19 5 57 21q119 48 189 103l23 18l20 19l59 -49l-16 -18l-27 -27q-35 -35 -65 -52
l-35 -20l-41 -22l-34 -15l-68 -29q-111 -36 -277 -36q-334 0 -551 179q-233 191 -233 519q0 301 219 507q228 214 559 206l39 -1l25 -3l28 -5q22 -3 66 -12l33 -9q13 -3 36 -13l21 -7l43 -20l20 -12q15 -8 41 -26l16 -14l17 -18l14 -36h11l-6 36v117h106v-379z" />
    <glyph glyph-name="D" unicode="D" horiz-adv-x="1544" 
d="M657 1370q352 0 545 -162q196 -165 225 -354l13 -84q6 -39 6 -80v-41l-2 -14l-6 -55q-11 -104 -67 -209q-51 -96 -146 -191q-180 -180 -568 -180h-565v72h170v1226h-170v72h565zM440 86h215q249 0 407 142t187 390v31l2 29q1 18 1 37q0 201 -151.5 385t-445.5 184h-215
v-1198z" />
    <glyph glyph-name="E" unicode="E" horiz-adv-x="1298" 
d="M92 1370h1055v-244h-100v134h-607v-488h506v162h101v-393h-101v145h-506v-577h643v186h101v-295h-1092v72h170v1226h-170v72z" />
    <glyph glyph-name="F" unicode="F" horiz-adv-x="1245" 
d="M1171 1372v-260h-102v152h-629v-494h518v162h105v-406h-105v158h-518v-612h170v-72h-518v72h170v1228h-170v72h1079z" />
    <glyph glyph-name="G" unicode="G" horiz-adv-x="1624" 
d="M1458 1370v-375h-102v17q0 116 -116 188q-121 75 -259 96l-59 9h-39l-19 2q-228 0 -393 -160q-61 -59 -119 -194l-18 -58l-14 -69l-8 -71l-3 -77q-5 -133 39 -260t127 -193l84 -66l41 -26l46 -24q114 -45 183 -46q17 0 37 -2h72q17 0 41 7q108 18 189 54q96 42 155 116
v292h-223v80h391l2 -612h-51l-72 127l-21 -13l-22 -16l-43 -26l-75 -34l-91 -32l-111 -19l-62 -6l-66 -2q-352 -11 -543.5 187t-212.5 411l-6 60v40l-2 19q0 104 12 160l15 70l10 34q3 16 13 29q47 106 162 212q70 53 223 140q74 30 144 39l101 13h44l21 2l36 -1h28l25 -4
q19 0 22 -2l17 -3l34 -9q114 -30 174 -57q87 -39 139 -88l17 -41h12l-6 41v141h100z" />
    <glyph glyph-name="H" unicode="H" horiz-adv-x="1677" 
d="M440 72h170v-72h-518v72h170v1226h-170v72h518v-72h-170v-528h820v528h-170v72h518v-72h-170v-1226h170v-72h-518v72h170v612h-820v-612z" />
    <glyph glyph-name="I" unicode="I" horiz-adv-x="680" 
d="M262 1298h-170v72h518v-72h-170v-1226h170v-72h-518v72h170v1226z" />
    <glyph glyph-name="J" unicode="J" horiz-adv-x="948" 
d="M891 1370v-72h-170l-11 -1050q-4 -20 -8 -29l-12 -29q-21 -52 -106 -149q-24 -19 -99 -46l-68 -16q-25 -6 -71 -6h-48l-32 5l-40 5l-31 7q-114 26 -172 104q-66 89 -66 199h168v-20l4 -26l12 -44l8 -20l18 -32l40 -47q48 -42 139 -43q111 -1 148 70q40 76 45 152l4 57
v958h-187v72h535z" />
    <glyph glyph-name="K" unicode="K" horiz-adv-x="1538" 
d="M92 72h170v1226h-170v72h518v-72h-170v-700l670 700h-174v72h438v-72h-170l-430 -460l559 -766h164v-72h-530v72h163l-468 645l-222 -236v-409h170v-72h-518v72z" />
    <glyph glyph-name="L" unicode="L" horiz-adv-x="1165" 
d="M92 1370h535v-72h-187v-1189h584v184h113v-293h-1045v72h170v1226h-170v72z" />
    <glyph glyph-name="M" unicode="M" horiz-adv-x="2040" 
d="M1022 254h12l4 37l584 1079h348v-72h-170v-1226h170v-72h-518v72h170l4 1149h-10l-19 -54l-587 -1081h-62l-596 1135h-10l6 -54v-1095h170v-72h-426v72h170v1226h-170v72h348l578 -1079z" />
    <glyph glyph-name="N" unicode="N" horiz-adv-x="1708" 
d="M414 1370l942 -1034l18 -41h10l-6 43v960h-170v72h430v-72h-170v-1321h-10l-1108 1229h-12l14 -57v-1077h170v-72h-430v72h170v1226h-170v72h322z" />
    <glyph glyph-name="O" unicode="O" horiz-adv-x="1710" 
d="M127 811l16 65l27 74q58 158 232 304q165 139 460 139q324 0 507 -174q204 -194 235 -400l10 -67l4 -66l-2 -29v-26l-3 -60v-16l-4 -11l-7 -30l-18 -58l-12 -32l-5 -12l-9 -16q-69 -122 -157 -214q-194 -201 -539 -202q-325 0 -510 180q-66 64 -146 187q-31 47 -79 210
l-10 64l-2 65q-1 28 12 125zM465 238q148 -175 401 -175q255 0 406 187q72 89 111 200q25 70 30 115l7 58l3 63q11 233 -153 440q-69 87 -178 135q-55 24 -119 33l-59 8l-48 5q-252 0 -409 -188q-148 -177 -148 -433q0 -264 156 -448z" />
    <glyph glyph-name="P" unicode="P" horiz-adv-x="1239" 
d="M440 72h185v-72h-533v72h170v1228h-170v70h627q215 0 330 -108q108 -101 120 -238v-16q0 -227 -148 -351q-138 -115 -370 -116q-97 0 -112 8l-52 8l-47 14v-499zM440 651q75 -24 203 -24q173 0 250 106q36 50 60 113l16 60q6 23 6 63v16l-2 31l-6 31q-11 59 -102 161
q-51 45 -98 57l-32 8l-30 6l-26 4l-34 1h-205v-633z" />
    <glyph glyph-name="Q" unicode="Q" horiz-adv-x="1767" 
d="M1137 16l-66 -15l-79 -13l-66 -8l-60 -3q-293 -15 -524 216q-215 215 -215 493v29q0 111 54 241q44 107 149 224q190 213 549 213q332 0 522 -183q163 -158 227 -399l8 -63l4 -62v-48l-5 -35v-11q0 -8 -2 -10l-9 -35q-40 -155 -115 -262l-26 -37l-20 -23l-52 -55
q-34 -29 -127 -94l184 -195l-147 -53zM1198 164l49 43l43 43l35 43l13 17l20 30l23 46l21 47l28 95l16 158q0 278 -151 431t-349 186l-35 2h-21l-11 2h-13q-247 0 -401 -191q-143 -178 -143 -430q0 -257 163 -457q174 -171 387 -166l40 1q27 1 36 4l61 12l22 5l11 3l23 8
l-139 142l123 81z" />
    <glyph glyph-name="R" unicode="R" horiz-adv-x="1360" 
d="M705 1370q183 0 278 -67q7 -3 80 -69l25 -33l28 -46l15 -38l10 -40l8 -67q0 -113 -90 -242q-22 -32 -112 -86l-31 -13l-37 -10l-38 -6l-42 -2l-29 -2v-10l45 -8l43 -27l9 -9l26 -28l31 -52l68 -124l33 -51q31 -48 97 -133q48 -62 92 -98q47 -39 123 -39h17q16 0 18 2v-72
l-8 -2l-8 -4l-45 -10l-64 -4q-66 -4 -88 8q-21 3 -36 9l-33 19q-55 41 -99 105l-141 205q-65 97 -153 222l-56 56l-14 2h-187v-534h170v-72h-518v72h170v1226h-170v72h613zM440 692h203q121 0 229 90q88 94 89 213q1 132 -96 213q-91 76 -226 76h-199v-592z" />
    <glyph glyph-name="S" unicode="S" horiz-adv-x="1161" 
d="M1012 1370v-336h-94l-7 51q-15 107 -99 167q-77 55 -189 55q-128 0 -227 -50q-125 -62 -126 -178q-1 -75 84 -157l38 -25l52 -30l36 -18l63 -26l157 -57l68 -27q25 -6 37 -13l39 -17q82 -36 167 -119q75 -74 76 -209q1 -158 -130 -283q-134 -128 -384 -123l-55 1l-31 3
l-28 5q-44 8 -127 36l-56 29l-53 43l-20 43h-10l10 -45v-90h-94v362h94l5 -91l3 -13l6 -12q25 -69 111 -129q37 -26 105 -39l72 -14q18 -1 44 -5h24q140 0 235 54q116 67 116 196q0 114 -58 165q-75 66 -159 93l-22 7l-17 8l-22 7l-17 9l-34 12l-36 15l-65 24l-110 45
l-87 47l-27 16l-30 22q-112 82 -113 247q-1 150 127.5 260t314.5 107l55 -1q16 0 35 -2l33 -6l31 -4l19 -6q28 -9 49 -22l49 -31l30 -21l23 -18l18 -35h13l-9 43v80h97z" />
    <glyph glyph-name="T" unicode="T" horiz-adv-x="1307" 
d="M406 0v72h169v1190h-421v-189h-103v297h1227v-297h-102v189h-422v-1190h170v-72h-518z" />
    <glyph glyph-name="U" unicode="U" horiz-adv-x="1573" 
d="M614 1370v-72h-186l5 -906q0 -12 7 -35l8 -28l15 -36q33 -78 117 -158q37 -35 104 -54q63 -18 152 -18q162 0 256 74q86 68 145 225l11 56l5 34l2 37l1 75l4 32v702h-187v72h443v-72h-170v-819q0 -229 -143.5 -364t-373.5 -135q-203 0 -323 59q-139 69 -219 237
q-23 68 -33 142l-4 110v770h-170v72h534z" />
    <glyph glyph-name="V" unicode="V" horiz-adv-x="1509" 
d="M600 1370v-72h-219l424 -1036l6 -63h18l7 63l419 1036h-217v72h512v-72h-194l-525 -1298h-122l-539 1298h-186v72h616z" />
    <glyph glyph-name="W" unicode="W" horiz-adv-x="2148" 
d="M514 1370v-72h-192l366 -1038l4 -61h10l9 61l383 1110h84l381 -1171h12l8 61l360 1038h-190v72h440v-72h-153l-461 -1298h-115l-360 1102h-13l-10 -62l-362 -1040h-111l-463 1298h-157v72h530z" />
    <glyph glyph-name="X" unicode="X" horiz-adv-x="1567" 
d="M788 821h11l8 27l350 450h-186v72h450v-72h-153l-416 -532l528 -694h146v-72h-555v72h194l-413 561h-9l-16 -27l-397 -534h186v-72h-453v72h160l461 620l-473 606h-148v72h549v-72h-178l344 -450z" />
    <glyph glyph-name="Y" unicode="Y" horiz-adv-x="1307" 
d="M528 1370v-72h-186l348 -632l10 -43h11l12 43l364 632h-186v72h447v-72h-154l-442 -759v-467h170v-72h-519v72h170v446l-440 780h-149v72h544z" />
    <glyph glyph-name="Z" unicode="Z" horiz-adv-x="1290" 
d="M1219 1372l-873 -1263h801v149h102v-258h-1186l877 1262h-721v-162h-106v272h1106z" />
    <glyph glyph-name="bracketleft" unicode="[" horiz-adv-x="748" 
d="M258 1399h346v-94h-230v-1655h230v-96h-346v1845z" />
    <glyph glyph-name="bracketright" unicode="]" horiz-adv-x="748" 
d="M143 -446v96h228v1655h-228v94h346v-1845h-346z" />
    <glyph glyph-name="asciicircum" unicode="^" horiz-adv-x="997" 
d="M145 960v20l348 300l359 -300v-20l-359 200z" />
    <glyph glyph-name="underscore" unicode="_" horiz-adv-x="1696" 
d="M86 431h1524v-88h-1524v88z" />
    <glyph glyph-name="grave" unicode="`" horiz-adv-x="833" 
d="M144 -339q133 136 133 263v21l-4 26l-23 -2q-12 -1 -65 21q-27 23 -27 57q0 41 26.5 69t67.5 28q106 1 107 -144q0 -63 -10 -93q-9 -44 -34 -95q-38 -78 -136 -185zM474 -339q135 138 135 263l-6 47l-23 -2q-12 -1 -65 21q-27 23 -27 57q0 41 26.5 69t67.5 28
q106 1 107 -144q0 -63 -10 -93q-9 -44 -34 -95q-38 -78 -136 -185z" />
    <glyph glyph-name="a" unicode="a" horiz-adv-x="1051" 
d="M1022 72v-72h-311v86q-34 -37 -80 -57l-44 -19l-48 -14l-64 -12l-57 -4q-131 -9 -245 93q-102 91 -103 218q0 34 2 37l1 20l7 19q26 122 128 197q97 71 224 71h21l20 -2q63 -6 129 -33q60 -24 109 -82v148q0 126 -65 179t-150 54l-90 -12q-53 -7 -156 -76l-12 -8l-9 -8
l-57 79l12 9l15 10q20 13 65 34l29 10l45 14l67 12q34 6 87 6q204 0 292 -99q41 -60 54 -104l16 -55q6 -21 6 -58v-25l2 -30v-526h160zM711 385q-23 47 -76 113q-17 21 -58 37q-36 14 -73 14q-117 1 -192 -71t-76 -189q-1 -97 71 -162q32 -29 78 -48l45 -12l47 -4h12l17 3
l58 12q20 4 27 11l30 21q55 38 90 109v166z" />
    <glyph glyph-name="b" unicode="b" horiz-adv-x="1169" 
d="M334 1366v-506l-8 -57l12 -4q16 48 61 90q42 32 84 51l42 13l23 5l34 6l55 5q209 0 328 -145q112 -136 112 -349q0 -215 -122 -355q-126 -145 -322 -140l-39 1l-36 3l-27 5q-137 25 -220 156l-86 -145h-53v1303h-156v63h318zM334 379q0 -233 196 -305l33 -6q31 0 33 -2
q189 0 272 210l25 117l4 80l-6 82q-3 35 -21 105q-59 221 -274 221h-16l-15 -2q-86 -12 -158.5 -87t-72.5 -225v-188z" />
    <glyph glyph-name="c" unicode="c" horiz-adv-x="1042" 
d="M905 674h-92q0 134 -154 192q-31 12 -81 17l-19 2h-16l-26 -1l-10 -1l-20 -7q-17 -6 -57 -24q-33 -18 -106 -120q-24 -45 -39 -111l-9 -80l-4 -68q-10 -171 86 -293q87 -110 220 -110h11l36 1h16l19 4l30 4l22 5l36 12q99 33 153 86l55 -71l-24 -19l-12 -6l-15 -10
l-57 -31l-84 -37q-55 -18 -86 -21l-46 -5l-52 -2q-194 -7 -345 135q-142 134 -143 356q0 204 125 347q132 151 332 151q74 0 143 -25l22 -8l15 -6l4 -2l55 -33l5 -4l4 -2l14 -33l10 4l-8 33v53h92v-272z" />
    <glyph glyph-name="d" unicode="d" horiz-adv-x="1223" 
d="M997 72h156v-72h-317v94l8 51l-10 5q-30 -65 -111 -130q-50 -25 -86 -30l-49 -7l-56 -3q-201 -11 -325 145q-115 144 -115 350q0 221 122 357q130 145 318 137l48 -2q32 -1 53 -5.5t27 -9.5l30 -11q30 -11 58 -32q36 -27 86 -110l10 4l-8 51v449h-156v71h317v-1302z
M836 567q0 253 -203 307q-22 0 -31 5l-29 2q-90 6 -200 -93q-100 -91 -101 -315q0 -205 80 -299q18 -21 84 -70q27 -24 92 -34q15 0 23 -4h37l16 2q115 14 177 107q55 82 55 204v188z" />
    <glyph glyph-name="e" unicode="e" horiz-adv-x="1079" 
d="M268 453q0 -170 65 -257q72 -97 152 -120l58 -17l53 -4q93 -7 181 37q66 33 163 117l53 -55q-72 -87 -172 -123l-59 -21l-51 -17l-63 -8l-52 -5h-12l-60 3l-22 3q-158 22 -285 135q-130 116 -131 356q0 217 141 367q105 89 229 117l47 6l56 2q150 0 299 -121
q135 -110 135 -361v-34h-725zM813 518q0 307 -219 379l-29 6l-28 2q-111 8 -193 -104q-27 -36 -51.5 -124.5t-24.5 -137.5v-21h545z" />
    <glyph glyph-name="f" unicode="f" horiz-adv-x="664" 
d="M225 946v154q0 124 69 204q73 84 195 85q59 1 113 -25l22 -13l24 -16l21 -18l23 -21l-84 -88q-10 26 -22 43l-13 18l-16 19q-29 34 -72 35q-27 1 -65 -30l-9 -19l-20 -51v-11q0 -19 -4 -32v-234h215v-72h-215v-802h156v-72h-473v72h155v802h-155v72h155z" />
    <glyph glyph-name="g" unicode="g" horiz-adv-x="1208" 
d="M1151 946v-72h-156l-6 -993q-1 -15 -4 -21q-1 -11 -7 -32l-13 -34q-9 -24 -31 -69q-18 -39 -43 -69q-86 -127 -352 -127h-26l-28 4l-44 7q-41 6 -142 54l-30 20l-31 26l-28 26l-28 31l105 94q115 -192 274 -194q54 -1 109 20q45 18 82 51q82 74 82 254v172l10 51l-13 5
l-16 -35q-8 -17 -29 -41q-18 -20 -37 -33l-24 -16l-33 -17q-21 -11 -68 -21l-42 -5l-52 -2q-208 -8 -325 145q-29 38 -85 160q-18 58 -21 91l-5 47l-2 52q-7 193 120 348q120 145 320 146q217 1 312 -166l39 143h268zM836 573q0 131 -65 216q-71 94 -198 96l-61 -6
q-19 0 -21 -2l-25 -9l-30 -16q-39 -21 -112 -117q-24 -41 -39 -106l-9 -76l-4 -74q-1 -20 -1 -40q0 -182 89 -273q44 -45 95 -69l50 -18l27 -5l25 -2h31l16 2q115 14 177 107q55 82 55 204v188z" />
    <glyph glyph-name="h" unicode="h" horiz-adv-x="1202" 
d="M381 1368v-506l-12 -61l12 -2l27 53q17 21 33 33l18 14l23 13l39 18l65 26l26 5l23 4l51 4q14 1 28 1q103 0 169 -59q60 -53 88 -125l11 -43l9 -49l4 -67v-555h156v-72h-473v72h156v557q0 242 -197 243q-107 1 -170 -61l-43 -61l-29 -70l-12 -70v-48l-2 -13v-477h156v-72
h-474v72h156v1224h-156v72h318z" />
    <glyph glyph-name="i" unicode="i" horiz-adv-x="600" 
d="M387 946v-874h156v-72h-473v72h155v802h-155v72h317zM205 1266q0 31 30 62t70 32q39 1 69.5 -30t31.5 -70l-3 -17q0 -16 -3.5 -23.5t-16.5 -21.5l-17 -19q-22 -19 -61 -20q-19 0 -59 18l-18 24l-17 24q0 13 -4 18l-2 17v6z" />
    <glyph glyph-name="j" unicode="j" horiz-adv-x="594" 
d="M401 946v-1046q0 -324 -213 -377q-20 0 -32 -4l-31 -2l-47 1q-10 0 -12 2l-26 4l-16 5l-23 11q-28 13 -85 69l90 67q25 -55 59 -77q23 -15 56 -15q63 -1 88 56l17 53l12 63l2 31v1087h-185v72h346zM221 1272l6 16q0 9 7 17l11 16l13 14q20 22 64 23q24 1 73 -30
q27 -30 27 -71q0 -44 -30 -72t-70 -28h-9l-6 2q-27 3 -59 31q-27 29 -27 67v15z" />
    <glyph glyph-name="k" unicode="k" horiz-adv-x="1206" 
d="M381 475l395 399h-178v72h459v-72h-160l-289 -290l416 -512h154v-72h-523v72h158l-317 397l-115 -113v-284h156v-72h-474v72h156v1231h-156v71h318v-899z" />
    <glyph glyph-name="l" unicode="l" horiz-adv-x="612" 
d="M387 72h156v-72h-473v72h155v1231h-155v71h317v-1302z" />
    <glyph glyph-name="m" unicode="m" horiz-adv-x="1757" 
d="M70 874v72h315v-92l-10 -53l10 -2q61 167 291 170l59 -6q17 0 35 -7l45 -18q22 -6 33 -20l37 -31q33 -33 57 -88l2 -25h12l2 25q30 67 68 94l41 29l43 22q38 15 74 21l65 4q116 7 213 -78q88 -77 88 -229v-590h156v-72h-457v72h140v534q0 55 -7 98l-5 31l-6 23l-13 37
q-26 75 -154 75q-105 0 -153 -55l-41 -58q-16 -22 -25 -65l-9 -42l-5 -34v-49l-2 -12v-483h139v-72h-440v72h139l-6 639q-9 75 -60.5 117t-128.5 42q-153 0 -211 -178l-9 -39l-3 -37v-48l-2 -13v-483h139v-72h-456v72h155v802h-155z" />
    <glyph glyph-name="n" unicode="n" horiz-adv-x="1208" 
d="M387 799q16 40 38 68q26 33 72 54l42 19l48 16l47 9l56 4q141 0 201 -58l25 -24l28 -33l35 -68l13 -48l4 -20l1 -24l4 -67v-555h156v-72h-473v72h156l-4 610q0 27 -12 63q-10 30 -34 68q-37 59 -147 59h-16q-240 0 -240 -323v-477h156v-72h-473v72h155v802h-155v72h317
v-98l-12 -47z" />
    <glyph glyph-name="o" unicode="o" horiz-adv-x="1153" 
d="M227 829q133 140 346 140q212 0 353 -142.5t141 -353.5q0 -218 -143 -356q-46 -45 -160 -103q-27 -10 -89 -24l-50 -7l-52 -3q-179 -10 -350 141q-29 33 -52 66q-19 27 -51 93q-10 27 -24 89l-7 50l-3 54q-11 196 141 356zM473 61l21 -7l32 -7h23q22 0 26 -2l25 1l16 1
q12 1 21 4l20 3l17 5l22 9l21 12q64 37 116.5 122.5t53.5 270.5q1 190 -64 287q-36 54 -63 72q-7 8 -72 49l-28 9l-31 7l-54 4l-60 -3q-8 0 -21 -7q-65 -21 -157 -114q-36 -47 -52 -122l-7 -33l-7 -52l-5 -63v-34q0 -343 207 -412z" />
    <glyph glyph-name="p" unicode="p" horiz-adv-x="1217" 
d="M381 -358h172v-72h-490v72h156v1232h-156v72h318v-69l-8 -74l10 -4q33 67 111 127l80 30l47 10l36 3h27q207 0 327 -146q113 -138 113 -348q0 -205 -120 -358q-50 -64 -139 -102q-81 -35 -179 -35h-34l-17 2l-26 1q-9 0 -25 7q-79 22 -117 48q-52 35 -84 112l-10 -5
l8 -51v-452zM381 379q0 -131 64 -217q72 -95 198 -96q159 -1 237 130q63 107 64 277q1 211 -77 298q-68 75 -187 108h-21l-16 2q-118 0 -190 -90t-72 -224v-188z" />
    <glyph glyph-name="q" unicode="q" horiz-adv-x="1223" 
d="M893 948h260v-71h-156v-1235h156v-72h-489v72h172v452l8 51l-13 5l-16 -35q-8 -17 -29 -41q-18 -20 -37 -33l-24 -16l-33 -17q-21 -11 -68 -21l-42 -5l-52 -2q-150 -6 -260 82q-104 83 -149 229q-29 92 -29 184q-1 213 111 349q120 145 329 145h23q25 0 27 -2l25 -1
l11 -1l17 -7q60 -15 121 -55q51 -33 88 -119zM836 567q0 253 -203 307q-22 0 -31 5l-29 2l-21 -1l-31 -4l-44 -12q-75 -20 -141 -114q-39 -55 -48 -113l-12 -75l-4 -89q-8 -173 56 -268q57 -85 129 -117q26 -12 61 -18l55 -4h15l16 2q115 14 177 107q55 82 55 204v188z" />
    <glyph glyph-name="r" unicode="r" horiz-adv-x="772" 
d="M397 797l8 22l8 15l19 33q13 22 49 55q51 46 137 47q42 0 72 -13q27 -9 47 -22l23 -21l12 -12l-82 -131l-24 31l-25 20q-19 15 -43 21l-39 4q-66 0 -121 -82l-15 -33l-23 -55l-9 -52l-4 -51v-501h156v-72h-473v72h155v802h-155v72h317v-149h10z" />
    <glyph glyph-name="s" unicode="s" horiz-adv-x="879" 
d="M745 946v-252h-88v13q0 78 -55 127l-26 17l-30 16l-23 10l-44 16h-12l-14 2h-11l-14 2h-21l-25 -2q-13 -1 -38 -8.5t-51 -30.5q-43 -39 -57 -86q0 -12 -5 -20v-19q0 -53 35 -84l33 -20l47 -25l31 -10l31 -8l8 -4q10 0 12 -2l47 -13l49 -12q89 -22 193 -91q91 -61 92 -202
q1 -134 -93 -210q-86 -70 -224 -70h-52l-15 2l-27 1l-10 1l-18 6l-46 12l-22 9l-23 14l-37 24l-19 13l-20 20l-15 29l-10 -5l6 -26v-80h-92v289h92v-8q0 -94 70 -156q62 -56 160 -72q12 0 20 -4h23q122 0 194 101l8 17l5 17l4 31q0 52 -54 104l-54 28l-75 30q-6 0 -14 4
q-8 0 -12 4l-27 8l-26 8l-15 2q-8 0 -12 5q-64 15 -96 34l-46 21l-47 26q-85 47 -86 195q-1 127 90 208q87 77 216 77l67 -6q33 -3 62 -17l49 -24l22 -13l31 -22l12 -31l13 4l-9 29v57h88z" />
    <glyph glyph-name="t" unicode="t" horiz-adv-x="700" 
d="M381 1296v-350h219v-72h-219l3 -733q1 -14 4 -25l7 -24q13 -45 76 -47l33 6q24 4 49 41l13 19l5 10l19 37l82 -68q-66 -75 -123 -96l-37 -8q-33 -7 -57 -6l-62 3q-12 1 -25 4l-26 7q-24 10 -70 45q-46 67 -51 135l-2 27v673h-156v72h156v236z" />
    <glyph glyph-name="u" unicode="u" horiz-adv-x="1217" 
d="M375 946l16 -753q8 -23 60 -91l55 -31l37 -7l41 -3q104 -8 178 70q67 70 67 203v540h-155v72h317v-874h156v-72h-318v76l11 47h-13l-24 -45l-47 -41l-23 -15l-24 -12l-98 -28l-48 -5l-39 -2q-136 -7 -209 62q-27 25 -51 63l-17 34l-16 40l-9 39l-7 39v47l-2 20v555h-156
v72h318z" />
    <glyph glyph-name="v" unicode="v" horiz-adv-x="1055" 
d="M457 946v-72h-176l270 -667l6 -47h12l9 47l268 667h-176v72h413v-72h-141l-360 -874h-115l-361 874h-135v72h486z" />
    <glyph glyph-name="w" unicode="w" horiz-adv-x="1513" 
d="M449 946v-72h-168l215 -618l6 -49h10l6 49l240 690h61l242 -690l4 -49h12l4 49l226 618h-187v72h422v-72h-135l-322 -874h-90l-227 623l-4 45h-12l-4 -45l-226 -623h-92l-321 874h-138v72h478z" />
    <glyph glyph-name="x" unicode="x" horiz-adv-x="1137" 
d="M295 72h174v-72h-440v72h155l299 395l-299 407h-155v72h471v-72h-127l207 -280l213 280h-150v72h418v-72h-158l-268 -354l328 -448h145v-72h-483v72h149l-235 321z" />
    <glyph glyph-name="y" unicode="y" horiz-adv-x="1120" 
d="M618 170l9 47l270 655l-188 2v72h440v-72h-160l-430 -1058q-2 -7 -10 -23q-37 -85 -100 -194q-49 -84 -154 -84l-19 2h-18l-33 9l-33 13q-22 9 -35 20l-22 19l74 156q12 -24 37 -49l12 -6l37 -17q96 0 135 94l102 244l-389 874h-143v72h485v-72h-184l295 -657l12 -47h10z
" />
    <glyph glyph-name="z" unicode="z" horiz-adv-x="948" 
d="M891 946l-600 -874h483v211h111v-283h-828l600 874h-456v-212h-113v284h803z" />
    <glyph glyph-name="braceleft" unicode="{" horiz-adv-x="770" 
d="M258 790v609h496v-94h-380v-515h-116z" />
    <glyph glyph-name="bar" unicode="|" horiz-adv-x="854" 
d="M664 1399v-1886h-121v1886h121zM315 1399v-1886h-123v1886h123z" />
    <glyph glyph-name="braceright" unicode="}" horiz-adv-x="770" 
d="M392 790l-1 515h-378v94h496l1 -609h-118z" />
    <glyph glyph-name="nonbreakingspace" unicode="&#xa0;" horiz-adv-x="500" 
 />
    <glyph glyph-name="Agrave" unicode="&#xc0;" horiz-adv-x="894" 
d="M423 771q0 -61 40 -104q25 -19 50 -31l19 -9q13 -3 24 -14l77 -47l18 -13q50 -36 87 -100q40 -69 41 -162q1 -74 -38 -152q-40 -81 -117.5 -128t-168.5 -48q-198 -2 -292 139q-48 72 -48 173q0 79 51 178l70 -18q-27 -79 -27 -156q0 -137 123 -206q20 -9 61 -21l29 -5
l33 -2q74 -4 131 32q99 63 99 208q0 162 -203 259l-46 22q-54 26 -78 77l-8 26l-4 22l-1 23q-1 19 6 57h72zM423 771q0 -61 40 -104q25 -19 50 -31l19 -9q13 -3 24 -14l77 -47l18 -13q50 -36 87 -100q40 -69 41 -162q1 -74 -38 -152q-40 -81 -117.5 -128t-168.5 -48
q-198 -2 -292 139q-48 72 -48 173q0 79 51 178l70 -18q-27 -79 -27 -156q0 -137 123 -206q20 -9 61 -21l29 -5l33 -2q74 -4 131 32q99 63 99 208q0 162 -203 259l-46 22q-54 26 -78 77l-8 26l-4 22l-1 23q-1 19 6 57h72z" />
    <glyph glyph-name="Agrave" unicode="&#x410;" horiz-adv-x="894" 
d="M423 771q0 -61 40 -104q25 -19 50 -31l19 -9q13 -3 24 -14l77 -47l18 -13q50 -36 87 -100q40 -69 41 -162q1 -74 -38 -152q-40 -81 -117.5 -128t-168.5 -48q-198 -2 -292 139q-48 72 -48 173q0 79 51 178l70 -18q-27 -79 -27 -156q0 -137 123 -206q20 -9 61 -21l29 -5
l33 -2q74 -4 131 32q99 63 99 208q0 162 -203 259l-46 22q-54 26 -78 77l-8 26l-4 22l-1 23q-1 19 6 57h72zM423 771q0 -61 40 -104q25 -19 50 -31l19 -9q13 -3 24 -14l77 -47l18 -13q50 -36 87 -100q40 -69 41 -162q1 -74 -38 -152q-40 -81 -117.5 -128t-168.5 -48
q-198 -2 -292 139q-48 72 -48 173q0 79 51 178l70 -18q-27 -79 -27 -156q0 -137 123 -206q20 -9 61 -21l29 -5l33 -2q74 -4 131 32q99 63 99 208q0 162 -203 259l-46 22q-54 26 -78 77l-8 26l-4 22l-1 23q-1 19 6 57h72z" />
    <glyph glyph-name="Aacute" unicode="&#xc1;" horiz-adv-x="1005" 
d="M601 1072l2 -26l-2 -56v-24q0 -88 42 -167l25 -29l75 -69l47 -46q22 -22 70 -91q58 -85 59 -213q1 -176 -116 -283q-113 -104 -290 -105q-210 -1 -349 200q-21 46 -36 100l-9 51l-4 51q-6 81 34 160q37 72 76 105l46 39l63 47q89 66 119 104q36 46 45 91t9 116
q0 141 -119 198l-23 11l-25 9l-35 8l-30 2q0 -85 -15 -179q-9 -57 -28 -106l-66 12q33 134 33 341q0 28 -12 137h88q0 -18 21 -65q23 -26 71 -52q86 -45 146 -94q26 -16 67 -78q9 -21 15 -46q3 -12 6 -53zM539 777l-137 -103l-49 -40l-47 -43q-33 -36 -66 -102l-13 -35
l-10 -29l-6 -30l-2 -34q-7 -115 80 -220q80 -96 236 -96q132 0 216 89q82 86 83 219q1 150 -127 274l-64 62z" />
    <glyph glyph-name="Aacute" unicode="&#x411;" horiz-adv-x="1005" 
d="M601 1072l2 -26l-2 -56v-24q0 -88 42 -167l25 -29l75 -69l47 -46q22 -22 70 -91q58 -85 59 -213q1 -176 -116 -283q-113 -104 -290 -105q-210 -1 -349 200q-21 46 -36 100l-9 51l-4 51q-6 81 34 160q37 72 76 105l46 39l63 47q89 66 119 104q36 46 45 91t9 116
q0 141 -119 198l-23 11l-25 9l-35 8l-30 2q0 -85 -15 -179q-9 -57 -28 -106l-66 12q33 134 33 341q0 28 -12 137h88q0 -18 21 -65q23 -26 71 -52q86 -45 146 -94q26 -16 67 -78q9 -21 15 -46q3 -12 6 -53zM539 777l-137 -103l-49 -40l-47 -43q-33 -36 -66 -102l-13 -35
l-10 -29l-6 -30l-2 -34q-7 -115 80 -220q80 -96 236 -96q132 0 216 89q82 86 83 219q1 150 -127 274l-64 62z" />
    <glyph glyph-name="Acircumflex" unicode="&#xc2;" horiz-adv-x="1005" 
d="M162 289q-75 81 -76 189q-1 107 82.5 191.5t190.5 85.5t187 -109q55 -75 49 -180l-8 -146l-7 -61q0 -43 26 -71l31 -33l44 -42q115 -110 156 -176q28 -45 36 -91l9 -52l4 -53q7 -90 -44 -187q-97 -186 -346 -186q-76 0 -118 12l-52 15l-23 10q-18 8 -24 13
q-84 47 -139 141q-51 87 -52 191q-1 98 31 154q4 21 33 58l17 22l25 25q33 33 109 87.5t109 87.5q87 87 88 226q1 262 -161 263q-78 0 -124 -57q-42 -52 -43 -132q-1 -77 46 -158zM511 164l-141 -109l-53 -45l-46 -46q-88 -88 -88 -216q0 -168 151 -258q40 -24 75 -30l39 -7
l44 -3q123 -8 216 75q84 75 84 212q0 103 -41 163l-24 35l-29 35l-16 18l-87 87z" />
    <glyph glyph-name="Acircumflex" unicode="&#x412;" horiz-adv-x="1005" 
d="M162 289q-75 81 -76 189q-1 107 82.5 191.5t190.5 85.5t187 -109q55 -75 49 -180l-8 -146l-7 -61q0 -43 26 -71l31 -33l44 -42q115 -110 156 -176q28 -45 36 -91l9 -52l4 -53q7 -90 -44 -187q-97 -186 -346 -186q-76 0 -118 12l-52 15l-23 10q-18 8 -24 13
q-84 47 -139 141q-51 87 -52 191q-1 98 31 154q4 21 33 58l17 22l25 25q33 33 109 87.5t109 87.5q87 87 88 226q1 262 -161 263q-78 0 -124 -57q-42 -52 -43 -132q-1 -77 46 -158zM511 164l-141 -109l-53 -45l-46 -46q-88 -88 -88 -216q0 -168 151 -258q40 -24 75 -30l39 -7
l44 -3q123 -8 216 75q84 75 84 212q0 103 -41 163l-24 35l-29 35l-16 18l-87 87z" />
    <glyph glyph-name="Atilde" unicode="&#xc3;" horiz-adv-x="1421" 
d="M990 -632q-58 76 -152 126l-93 39l-56 18l-65 20l-59 10l-54 7q-66 9 -113 6l-54 -3l-67 -3v90l66 7l53 3h23q19 0 22 -2q-78 66 -166 186q-23 31 -54 96l-62 130q-27 78 -33 123l-8 62l-3 68q-5 124 49 226q49 92 125 135l74 32l36 8l40 3q14 1 77 -9l37 -12l18 -8
l22 -9q60 -25 131 -114q90 151 258 152q189 1 284 -200l17 -47l12 -46l8 -50l3 -53q6 -99 -37 -196q-87 -199 -287 -200q-204 -1 -284 203q-36 92 -36 195q0 48 21 154q-28 52 -71 87l-20 16l-21 14l-47 23q-37 18 -89 18q-109 0 -173 -113q-53 -94 -53 -211
q0 -279 211 -514l83 -71l52 -39l33 -23q78 -44 161 -82l57 -26l117 -56l38 -22l26 -14l20 -15l46 -33q16 -11 47 -38l46 -48h-156zM982 45q31 0 51 7q82 20 140 130q39 74 39 177q0 175 -110 268q-53 45 -120 46q-63 1 -111 -40l-21 -18l-23 -27q-23 -27 -38 -68l-10 -27
l-16 -52l-6 -38l-2 -44q-2 -38 7 -89q21 -121 116 -186q57 -39 104 -39z" />
    <glyph glyph-name="Atilde" unicode="&#x413;" horiz-adv-x="1421" 
d="M990 -632q-58 76 -152 126l-93 39l-56 18l-65 20l-59 10l-54 7q-66 9 -113 6l-54 -3l-67 -3v90l66 7l53 3h23q19 0 22 -2q-78 66 -166 186q-23 31 -54 96l-62 130q-27 78 -33 123l-8 62l-3 68q-5 124 49 226q49 92 125 135l74 32l36 8l40 3q14 1 77 -9l37 -12l18 -8
l22 -9q60 -25 131 -114q90 151 258 152q189 1 284 -200l17 -47l12 -46l8 -50l3 -53q6 -99 -37 -196q-87 -199 -287 -200q-204 -1 -284 203q-36 92 -36 195q0 48 21 154q-28 52 -71 87l-20 16l-21 14l-47 23q-37 18 -89 18q-109 0 -173 -113q-53 -94 -53 -211
q0 -279 211 -514l83 -71l52 -39l33 -23q78 -44 161 -82l57 -26l117 -56l38 -22l26 -14l20 -15l46 -33q16 -11 47 -38l46 -48h-156zM982 45q31 0 51 7q82 20 140 130q39 74 39 177q0 175 -110 268q-53 45 -120 46q-63 1 -111 -40l-21 -18l-23 -27q-23 -27 -38 -68l-10 -27
l-16 -52l-6 -38l-2 -44q-2 -38 7 -89q21 -121 116 -186q57 -39 104 -39z" />
    <glyph glyph-name="Adieresis" unicode="&#xc4;" horiz-adv-x="919" 
d="M205 213q-71 136 -69 220l1 37l6 44q3 25 22 66q34 74 106.5 124t187.5 51t202 -57q46 -31 92 -144l16 -96q6 -38 6 -113v-606q0 -40 -4 -59v-18l-4 -14l-9 -34q-17 -65 -54 -126q-72 -120 -286 -120q-153 0 -256 82.5t-104 235.5q-1 204 143 297l49 -53
q-97 -79 -98 -225q-1 -145 118 -218q34 -21 67 -27l38 -7l43 -3q269 -19 269 298v597q0 155 -35 226q-49 101 -186 102q-234 1 -236 -224q-1 -92 57 -201z" />
    <glyph glyph-name="Adieresis" unicode="&#x414;" horiz-adv-x="919" 
d="M205 213q-71 136 -69 220l1 37l6 44q3 25 22 66q34 74 106.5 124t187.5 51t202 -57q46 -31 92 -144l16 -96q6 -38 6 -113v-606q0 -40 -4 -59v-18l-4 -14l-9 -34q-17 -65 -54 -126q-72 -120 -286 -120q-153 0 -256 82.5t-104 235.5q-1 204 143 297l49 -53
q-97 -79 -98 -225q-1 -145 118 -218q34 -21 67 -27l38 -7l43 -3q269 -19 269 298v597q0 155 -35 226q-49 101 -186 102q-234 1 -236 -224q-1 -92 57 -201z" />
    <glyph glyph-name="Aring" unicode="&#xc5;" horiz-adv-x="835" 
d="M142 306l-6 55l-2 45q-4 82 28 170q64 177 281 179q91 1 155 -34t107.5 -103.5t43.5 -158.5q0 -245 -175 -328v-8q202 -58 203 -349q1 -186 -88 -292q-95 -113 -277 -114q-103 -1 -190 48q-132 74 -154 211l-7 44l-3 46q-3 49 30 130q29 71 91 124l49 -47
q-75 -78 -76 -222q-1 -122 79 -189q74 -63 198 -63q253 0 254 312q0 328 -275 328h-20v68l28 -2q96 -7 170 74q67 73 68 225q1 94 -54.5 155.5t-148.5 62.5q-132 1 -180 -83q-27 -47 -36 -102l-7 -43l-6 -49q0 -54 6 -90h-86z" />
    <glyph glyph-name="Aring" unicode="&#x415;" horiz-adv-x="835" 
d="M142 306l-6 55l-2 45q-4 82 28 170q64 177 281 179q91 1 155 -34t107.5 -103.5t43.5 -158.5q0 -245 -175 -328v-8q202 -58 203 -349q1 -186 -88 -292q-95 -113 -277 -114q-103 -1 -190 48q-132 74 -154 211l-7 44l-3 46q-3 49 30 130q29 71 91 124l49 -47
q-75 -78 -76 -222q-1 -122 79 -189q74 -63 198 -63q253 0 254 312q0 328 -275 328h-20v68l28 -2q96 -7 170 74q67 73 68 225q1 94 -54.5 155.5t-148.5 62.5q-132 1 -180 -83q-27 -47 -36 -102l-7 -43l-6 -49q0 -54 6 -90h-86z" />
    <glyph glyph-name="AE" unicode="&#xc6;" horiz-adv-x="1241" 
d="M876 1027l-308 -348v-76q78 151 234 152q185 1 279 -188q45 -91 45 -208q0 -92 -41 -185t-110 -151q-72 -60 -173 -60q-85 0 -154.5 45t-124.5 141l-17 44l-14 50l-9 56l-3 60v611q-57 -84 -166 -84q-121 0 -192 99q-64 89 -64 215q0 122 66 212q73 99 190 99
q254 0 254 -311v-408l308 358v-123zM802 45q25 -1 38 3l19 5l15 7l11 7l16 10q54 34 93 106q21 38 27 80l7 46l3 50q5 75 -28 151q-69 161 -201 163q-89 1 -154 -84q-24 -31 -42.5 -73t-23.5 -75l-6 -38l-2 -44q-4 -88 33 -168q35 -75 90.5 -110t104.5 -36zM152 1200
q0 -93 34 -155q42 -76 128 -77q73 -1 120 83q40 71 40 149q0 90 -34 152q-43 76 -126 77t-127 -76q-35 -63 -35 -153z" />
    <glyph glyph-name="AE" unicode="&#x416;" horiz-adv-x="1241" 
d="M876 1027l-308 -348v-76q78 151 234 152q185 1 279 -188q45 -91 45 -208q0 -92 -41 -185t-110 -151q-72 -60 -173 -60q-85 0 -154.5 45t-124.5 141l-17 44l-14 50l-9 56l-3 60v611q-57 -84 -166 -84q-121 0 -192 99q-64 89 -64 215q0 122 66 212q73 99 190 99
q254 0 254 -311v-408l308 358v-123zM802 45q25 -1 38 3l19 5l15 7l11 7l16 10q54 34 93 106q21 38 27 80l7 46l3 50q5 75 -28 151q-69 161 -201 163q-89 1 -154 -84q-24 -31 -42.5 -73t-23.5 -75l-6 -38l-2 -44q-4 -88 33 -168q35 -75 90.5 -110t104.5 -36zM152 1200
q0 -93 34 -155q42 -76 128 -77q73 -1 120 83q40 71 40 149q0 90 -34 152q-43 76 -126 77t-127 -76q-35 -63 -35 -153z" />
    <glyph glyph-name="Ccedilla" unicode="&#xc7;" horiz-adv-x="1100" 
d="M604 1087l8 43l2 44q3 74 -41 120q-39 40 -106 41q-97 1 -146 -93l-14 -95l-8 -43l-2 -53v-68l-4 -31l2 -137q248 62 309 272zM767 784l1 31q80 0 129 31q24 15 40 34l29 42l10 46l-4 44l-38 56l-36 40l-18 26l-19 19l-53 96l-23 62l-6 71q19 -62 55 -104l72 -84l60 -61
l49 -56l26 -45l11 -47q0 -164 -183 -211q68 -18 111 -55q42 -30 43 -125q1 -76 -39 -113q-14 -10 -22 -16l-22 -14l-56 -25q85 -30 112 -83t27 -146q0 -69 -31 -125q-18 -32 -52 -63l-62 -39q-26 -17 -68 -32l-10 -2l-78 -17l-85 -4l-77 10l-67 16q-31 7 -69 28
q-96 52 -138 132q-22 43 -32 93l-17 88l-30 207q0 2 -0.5 5.5t-1.5 5.5q0 16 -4 28l-6 84l-3 129v78l6 158l10 79l9 64q6 46 26 97q33 86 81 131q52 49 135 50q61 1 115.5 -22t76.5 -59l22 -36q15 -25 15 -63v-18l-1 -12l-8 -94l-18 -70q-4 -17 -17 -38q-8 -18 -38.5 -58.5
t-69.5 -61.5l-93 -51l-75 -33l-70 -20l2 -156l8 -65q23 -190 34 -238q43 -197 128 -244q53 -30 129 -35l42 -3q55 -4 144 27q139 48 140 166q1 56 -34 103l-50 54q-27 29 -74 45l-12 2l-16 2v15l-1 31h31l24 2l24 6q13 3 42 14q31 15 43 27t25 37q9 24 10 54q1 40 -30 76
l-31 25l-37 25l-43 24l-29 6v22z" />
    <glyph glyph-name="Ccedilla" unicode="&#x417;" horiz-adv-x="1100" 
d="M604 1087l8 43l2 44q3 74 -41 120q-39 40 -106 41q-97 1 -146 -93l-14 -95l-8 -43l-2 -53v-68l-4 -31l2 -137q248 62 309 272zM767 784l1 31q80 0 129 31q24 15 40 34l29 42l10 46l-4 44l-38 56l-36 40l-18 26l-19 19l-53 96l-23 62l-6 71q19 -62 55 -104l72 -84l60 -61
l49 -56l26 -45l11 -47q0 -164 -183 -211q68 -18 111 -55q42 -30 43 -125q1 -76 -39 -113q-14 -10 -22 -16l-22 -14l-56 -25q85 -30 112 -83t27 -146q0 -69 -31 -125q-18 -32 -52 -63l-62 -39q-26 -17 -68 -32l-10 -2l-78 -17l-85 -4l-77 10l-67 16q-31 7 -69 28
q-96 52 -138 132q-22 43 -32 93l-17 88l-30 207q0 2 -0.5 5.5t-1.5 5.5q0 16 -4 28l-6 84l-3 129v78l6 158l10 79l9 64q6 46 26 97q33 86 81 131q52 49 135 50q61 1 115.5 -22t76.5 -59l22 -36q15 -25 15 -63v-18l-1 -12l-8 -94l-18 -70q-4 -17 -17 -38q-8 -18 -38.5 -58.5
t-69.5 -61.5l-93 -51l-75 -33l-70 -20l2 -156l8 -65q23 -190 34 -238q43 -197 128 -244q53 -30 129 -35l42 -3q55 -4 144 27q139 48 140 166q1 56 -34 103l-50 54q-27 29 -74 45l-12 2l-16 2v15l-1 31h31l24 2l24 6q13 3 42 14q31 15 43 27t25 37q9 24 10 54q1 40 -30 76
l-31 25l-37 25l-43 24l-29 6v22z" />
    <glyph glyph-name="Egrave" unicode="&#xc8;" horiz-adv-x="1472" 
d="M1021 13q110 68 187 189q27 61 39 131l16 92q0 83 -29 126q-27 52 -84.5 86.5t-116.5 35.5q-173 2 -248 -166l14 -77l4 -44l1 -23q4 -94 -38 -195q-85 -205 -307 -205q-100 0 -177 51q-81 53 -127 152q-23 50 -30 94l-7 47l-3 52q-2 40 9 102l4 22l7 27l18 42
q40 94 122 148t184 55q179 1 281 -158l28 35l22 22l67 52q97 48 181 49q85 1 159 -43t117 -118q20 -35 30 -90l7 -40q6 -34 6 -48q0 -283 -305 -453zM459 45q128 -2 209 139q25 43 37 100q6 32 6 75q0 172 -112 266q-57 48 -140 48q-143 0 -222 -167q-9 -24 -21 -73l-5 -36
l-2 -38q-6 -108 37 -174l18 -28l24 -31q26 -28 56 -46q56 -34 115 -35z" />
    <glyph glyph-name="Egrave" unicode="&#x418;" horiz-adv-x="1472" 
d="M1021 13q110 68 187 189q27 61 39 131l16 92q0 83 -29 126q-27 52 -84.5 86.5t-116.5 35.5q-173 2 -248 -166l14 -77l4 -44l1 -23q4 -94 -38 -195q-85 -205 -307 -205q-100 0 -177 51q-81 53 -127 152q-23 50 -30 94l-7 47l-3 52q-2 40 9 102l4 22l7 27l18 42
q40 94 122 148t184 55q179 1 281 -158l28 35l22 22l67 52q97 48 181 49q85 1 159 -43t117 -118q20 -35 30 -90l7 -40q6 -34 6 -48q0 -283 -305 -453zM459 45q128 -2 209 139q25 43 37 100q6 32 6 75q0 172 -112 266q-57 48 -140 48q-143 0 -222 -167q-9 -24 -21 -73l-5 -36
l-2 -38q-6 -108 37 -174l18 -28l24 -31q26 -28 56 -46q56 -34 115 -35z" />
    <glyph glyph-name="Eacute" unicode="&#xc9;" horiz-adv-x="974" 
d="M486 755q215 2 321 -188q29 -52 39 -113l9 -55l4 -32q0 -90 -28 -160q-34 -85 -79 -134l-45 -49l-69 -61l-35 35q162 171 162 361q0 186 -131 271q-32 21 -73 30l-31 7q-27 6 -42 6q-81 0 -142 -39q-40 -26 -98 -117q-39 -78 -39 -158q0 -187 162 -361l-35 -35
q-220 180 -221 404q-1 230 186 338q85 49 185 50z" />
    <glyph glyph-name="Eacute" unicode="&#x419;" horiz-adv-x="974" 
d="M486 755q215 2 321 -188q29 -52 39 -113l9 -55l4 -32q0 -90 -28 -160q-34 -85 -79 -134l-45 -49l-69 -61l-35 35q162 171 162 361q0 186 -131 271q-32 21 -73 30l-31 7q-27 6 -42 6q-81 0 -142 -39q-40 -26 -98 -117q-39 -78 -39 -158q0 -187 162 -361l-35 -35
q-220 180 -221 404q-1 230 186 338q85 49 185 50z" />
    <glyph glyph-name="Ecircumflex" unicode="&#xca;" horiz-adv-x="851" 
d="M701 771l8 -82l5 -72q2 -22 2 -43q0 -207 -134 -328v-12q61 -12 101 -57t66 -137l12 -87l4 -163l-1 -39v-19l-4 -18l-1 -20l-3 -27l-14 -66q-49 -231 -344 -233q-171 -1 -291 148q-21 37 -36 85l-9 49l-4 44q0 134 121 277l49 -47q-10 -10 -56 -97l-15 -61l-4 -31l-1 -33
q-3 -111 75 -183q75 -69 183 -69q210 0 246 188q15 79 15 192v41q0 303 -197 304q-51 0 -125 -48l-29 74q221 84 267 214q26 74 26 194v46l-4 29l-6 50l-10 37h108z" />
    <glyph glyph-name="Ecircumflex" unicode="&#x41a;" horiz-adv-x="851" 
d="M701 771l8 -82l5 -72q2 -22 2 -43q0 -207 -134 -328v-12q61 -12 101 -57t66 -137l12 -87l4 -163l-1 -39v-19l-4 -18l-1 -20l-3 -27l-14 -66q-49 -231 -344 -233q-171 -1 -291 148q-21 37 -36 85l-9 49l-4 44q0 134 121 277l49 -47q-10 -10 -56 -97l-15 -61l-4 -31l-1 -33
q-3 -111 75 -183q75 -69 183 -69q210 0 246 188q15 79 15 192v41q0 303 -197 304q-51 0 -125 -48l-29 74q221 84 267 214q26 74 26 194v46l-4 29l-6 50l-10 37h108z" />
    <glyph glyph-name="Edieresis" unicode="&#xcb;" horiz-adv-x="1763" 
d="M1513 146l-63 45q103 130 104 285q0 73 -46 132q-49 64 -120 65q-96 1 -161 -102q-25 -65 -30 -122l-7 -76l-3 -88l2 -61h-80l2 92q4 162 -47 263q-47 93 -170 94q-105 1 -144 -94q-40 -99 -38 -236l2 -119h-74l-4 125l-9 53q-15 86 -36 147q-43 123 -185 124
q-97 1 -152 -99q-44 -81 -45 -186q-1 -75 33 -209q14 -56 43 -111l28 -53l36 -58q29 -47 82 -97l55 -52l61 -51l62 -37l69 -35l25 -11l49 -19l95 -32l96 -24l77 -23q79 -24 169 -69l113 -57q96 -48 148 -82h-205q-42 27 -169 91l-96 36l-60 19l-49 13q-75 20 -221 36
l-127 14l-88 5q-42 2 -96 -3l-19 99l68 2h51l35 -4v8q-147 136 -245 309q-113 199 -114 374q-1 236 147 339q69 48 150 49q67 1 141.5 -39.5t115.5 -110.5q40 80 154 134l48 12l50 4q63 5 134 -40q62 -40 99 -110q89 150 238 150q109 0 219 -118q24 -37 30 -67l7 -36l3 -40
l-3 -37v-33q0 -10 -2 -12l-1 -20l-7 -24l-2 -9l-6 -19l-17 -40q-33 -78 -100 -154z" />
    <glyph glyph-name="Edieresis" unicode="&#x41b;" horiz-adv-x="1763" 
d="M1513 146l-63 45q103 130 104 285q0 73 -46 132q-49 64 -120 65q-96 1 -161 -102q-25 -65 -30 -122l-7 -76l-3 -88l2 -61h-80l2 92q4 162 -47 263q-47 93 -170 94q-105 1 -144 -94q-40 -99 -38 -236l2 -119h-74l-4 125l-9 53q-15 86 -36 147q-43 123 -185 124
q-97 1 -152 -99q-44 -81 -45 -186q-1 -75 33 -209q14 -56 43 -111l28 -53l36 -58q29 -47 82 -97l55 -52l61 -51l62 -37l69 -35l25 -11l49 -19l95 -32l96 -24l77 -23q79 -24 169 -69l113 -57q96 -48 148 -82h-205q-42 27 -169 91l-96 36l-60 19l-49 13q-75 20 -221 36
l-127 14l-88 5q-42 2 -96 -3l-19 99l68 2h51l35 -4v8q-147 136 -245 309q-113 199 -114 374q-1 236 147 339q69 48 150 49q67 1 141.5 -39.5t115.5 -110.5q40 80 154 134l48 12l50 4q63 5 134 -40q62 -40 99 -110q89 150 238 150q109 0 219 -118q24 -37 30 -67l7 -36l3 -40
l-3 -37v-33q0 -10 -2 -12l-1 -20l-7 -24l-2 -9l-6 -19l-17 -40q-33 -78 -100 -154z" />
    <glyph glyph-name="Igrave" unicode="&#xcc;" horiz-adv-x="902" 
d="M175 1033q-34 77 -35 162q-2 191 156 275q74 39 159 39q149 0 230 -99q74 -92 74 -245v-806q0 -235 -161 -345q-75 -51 -161 -51q-174 0 -284 203l-16 43l-11 47l-8 51l-3 52q-6 102 43 206q37 78 114 133q81 56 165 57q153 1 234 -152v545q0 278 -216 279
q-101 1 -163 -67q-65 -71 -61 -163l3 -76q1 -26 10 -53zM437 45q123 0 191 138q36 74 36 176q0 169 -107 267q-51 46 -120 47q-63 1 -113 -38q-57 -44 -84 -116l-13 -35l-10 -43l-6 -41l-2 -41q-4 -84 33 -168q33 -73 89 -112l60 -25q22 -9 46 -9z" />
    <glyph glyph-name="Igrave" unicode="&#x41c;" horiz-adv-x="902" 
d="M175 1033q-34 77 -35 162q-2 191 156 275q74 39 159 39q149 0 230 -99q74 -92 74 -245v-806q0 -235 -161 -345q-75 -51 -161 -51q-174 0 -284 203l-16 43l-11 47l-8 51l-3 52q-6 102 43 206q37 78 114 133q81 56 165 57q153 1 234 -152v545q0 278 -216 279
q-101 1 -163 -67q-65 -71 -61 -163l3 -76q1 -26 10 -53zM437 45q123 0 191 138q36 74 36 176q0 169 -107 267q-51 46 -120 47q-63 1 -113 -38q-57 -44 -84 -116l-13 -35l-10 -43l-6 -41l-2 -41q-4 -84 33 -168q33 -73 89 -112l60 -25q22 -9 46 -9z" />
    <glyph glyph-name="Iacute" unicode="&#xcd;" horiz-adv-x="958" 
d="M941 1460q-39 -164 -236 -154l-125 6l-55 4l-55 2q-49 2 -91 -16q-90 -39 -90 -240v-459q79 151 234 152q77 0 154 -46t122 -141q19 -40 33 -113q3 -15 13 -96l-1 -39v-22l-4 -15l-6 -35l-4 -18l-7 -20q-27 -77 -61 -124q-88 -122 -239 -123q-184 -2 -279 188l-17 44
l-15 53l-8 53l-3 58v779q0 89 62.5 175.5t220.5 86.5q36 0 108.5 -6t108.5 -6q97 0 154 72h86zM523 45q126 0 193 141q34 71 35 173q1 97 -26 154q-24 68 -77 112q-56 47 -125 48q-89 1 -154 -84q-24 -31 -42.5 -73t-23.5 -75l-6 -38l-2 -44q-4 -85 33 -168q33 -73 89 -112
l60 -25q22 -9 46 -9z" />
    <glyph glyph-name="Iacute" unicode="&#x41d;" horiz-adv-x="958" 
d="M941 1460q-39 -164 -236 -154l-125 6l-55 4l-55 2q-49 2 -91 -16q-90 -39 -90 -240v-459q79 151 234 152q77 0 154 -46t122 -141q19 -40 33 -113q3 -15 13 -96l-1 -39v-22l-4 -15l-6 -35l-4 -18l-7 -20q-27 -77 -61 -124q-88 -122 -239 -123q-184 -2 -279 188l-17 44
l-15 53l-8 53l-3 58v779q0 89 62.5 175.5t220.5 86.5q36 0 108.5 -6t108.5 -6q97 0 154 72h86zM523 45q126 0 193 141q34 71 35 173q1 97 -26 154q-24 68 -77 112q-56 47 -125 48q-89 1 -154 -84q-24 -31 -42.5 -73t-23.5 -75l-6 -38l-2 -44q-4 -85 33 -168q33 -73 89 -112
l60 -25q22 -9 46 -9z" />
    <glyph glyph-name="Icircumflex" unicode="&#xce;" horiz-adv-x="1060" 
d="M557 6h23l23 2l39 12l29 18l10 7l17 13l20 18l19 20l10 14l26 42l31 66l12 46l5 27l6 80l-4 42l-4 31l-3 14q-6 27 -22 48l-31 40q-20 26 -40 39l-24 16l-37 19l-33 9l-34 5h-36l-26 -3l-38 -10l-26 -9l-21 -11l-26 -16l-31 -25l-27 -25l-14 -19l-27 -54l-14 -62v-50
l10 -74l19 -70l34 -60l31 -38l35 -36l24 -18l27 -18l26 -16l20 -8zM386 3l-26 25l-47 56l-23 31l-19 33l-16 42l-21 60l-8 54l-6 36v30l2 54l11 57l7 33l9 21l6 15l19 33l8 12l9 14l10 14l15 16l36 33l33 22l33 18l51 21l79 16h63l45 -5l32 -7l29 -11l40 -23l15 -10l15 -13
l39 -37q13 -12 50 -77l17 -43q12 -30 15 -50l8 -52l3 -55q7 -133 -71 -249l-21 -31l-9 -16l-9 -15l-9 -10l-21 -20l-31 -23l-32 -17l1 -33l26 -7l38 -8l31 -4l36 1l42 6l52 12l30 12l46 16v-115l-49 -13l-26 -6l-36 -8l-45 -7l-45 -3h-42l-64 4l-38 8l-21 4l-39 10l-41 11
l-101 -33l-45 -12l-44 -6h-40l-43 4l-35 6l-36 9l-30 9l-27 9l-46 17l1 118l99 -28l41 -10l32 -7l34 -5h34l26 6l20 10l1 32z" />
    <glyph glyph-name="Icircumflex" unicode="&#x41e;" horiz-adv-x="1060" 
d="M557 6h23l23 2l39 12l29 18l10 7l17 13l20 18l19 20l10 14l26 42l31 66l12 46l5 27l6 80l-4 42l-4 31l-3 14q-6 27 -22 48l-31 40q-20 26 -40 39l-24 16l-37 19l-33 9l-34 5h-36l-26 -3l-38 -10l-26 -9l-21 -11l-26 -16l-31 -25l-27 -25l-14 -19l-27 -54l-14 -62v-50
l10 -74l19 -70l34 -60l31 -38l35 -36l24 -18l27 -18l26 -16l20 -8zM386 3l-26 25l-47 56l-23 31l-19 33l-16 42l-21 60l-8 54l-6 36v30l2 54l11 57l7 33l9 21l6 15l19 33l8 12l9 14l10 14l15 16l36 33l33 22l33 18l51 21l79 16h63l45 -5l32 -7l29 -11l40 -23l15 -10l15 -13
l39 -37q13 -12 50 -77l17 -43q12 -30 15 -50l8 -52l3 -55q7 -133 -71 -249l-21 -31l-9 -16l-9 -15l-9 -10l-21 -20l-31 -23l-32 -17l1 -33l26 -7l38 -8l31 -4l36 1l42 6l52 12l30 12l46 16v-115l-49 -13l-26 -6l-36 -8l-45 -7l-45 -3h-42l-64 4l-38 8l-21 4l-39 10l-41 11
l-101 -33l-45 -12l-44 -6h-40l-43 4l-35 6l-36 9l-30 9l-27 9l-46 17l1 118l99 -28l41 -10l32 -7l34 -5h34l26 6l20 10l1 32z" />
    <glyph glyph-name="Idieresis" unicode="&#xcf;" horiz-adv-x="1415" 
d="M367 -37q-121 117 -175 203q-77 121 -77 252q0 201 162 294q28 16 74 30l35 7q30 6 51 6q183 0 271 -146q80 144 268 146t280 -162q43 -77 44 -175q1 -102 -41 -184l127 -78l-51 -80l-121 76q-46 -76 -166 -189l-37 35q87 90 141 202q57 118 54 225l-1 39q0 7 -2 17
l-6 22q-3 12 -10 28l-5 12q-2 9 -11 18q-35 58 -90 84q-36 17 -59 21l-44 7q-140 0 -193 -130q-34 -85 -34 -252v-20h-89v96l-4 29v25l-4 18l-9 47q-35 185 -210 187q-85 1 -189 -111q-15 -33 -27 -69q-10 -55 -10 -68q0 -216 193 -427z" />
    <glyph glyph-name="Idieresis" unicode="&#x41f;" horiz-adv-x="1415" 
d="M367 -37q-121 117 -175 203q-77 121 -77 252q0 201 162 294q28 16 74 30l35 7q30 6 51 6q183 0 271 -146q80 144 268 146t280 -162q43 -77 44 -175q1 -102 -41 -184l127 -78l-51 -80l-121 76q-46 -76 -166 -189l-37 35q87 90 141 202q57 118 54 225l-1 39q0 7 -2 17
l-6 22q-3 12 -10 28l-5 12q-2 9 -11 18q-35 58 -90 84q-36 17 -59 21l-44 7q-140 0 -193 -130q-34 -85 -34 -252v-20h-89v96l-4 29v25l-4 18l-9 47q-35 185 -210 187q-85 1 -189 -111q-15 -33 -27 -69q-10 -55 -10 -68q0 -216 193 -427z" />
    <glyph glyph-name="Eth" unicode="&#xd0;" horiz-adv-x="947" 
d="M277 1460h62q0 -32 10 -52l9 -18l11 -18l12 -15q36 -45 134 -94q107 -54 156 -107q64 -70 65 -172q1 -159 -192 -238v-10q84 -9 144 -53q71 -53 102 -131l17 -43l8 -24l7 -27l8 -41l3 -48q6 -97 -51 -211q-97 -194 -331 -195q-143 -1 -238 84q-98 89 -98 230
q0 103 74 189l53 -39q-33 -66 -33 -140q0 -108 69 -174.5t177 -67.5q125 -1 207 101q76 95 76 223q0 152 -104 250q-71 67 -191 64l-76 -2v90q113 0 194 59t81 152q0 99 -82 150l-86 53q-198 122 -199 242q0 31 2 33z" />
    <glyph glyph-name="Eth" unicode="&#x420;" horiz-adv-x="947" 
d="M277 1460h62q0 -32 10 -52l9 -18l11 -18l12 -15q36 -45 134 -94q107 -54 156 -107q64 -70 65 -172q1 -159 -192 -238v-10q84 -9 144 -53q71 -53 102 -131l17 -43l8 -24l7 -27l8 -41l3 -48q6 -97 -51 -211q-97 -194 -331 -195q-143 -1 -238 84q-98 89 -98 230
q0 103 74 189l53 -39q-33 -66 -33 -140q0 -108 69 -174.5t177 -67.5q125 -1 207 101q76 95 76 223q0 152 -104 250q-71 67 -191 64l-76 -2v90q113 0 194 59t81 152q0 99 -82 150l-86 53q-198 122 -199 242q0 31 2 33z" />
    <glyph glyph-name="Ntilde" unicode="&#xd1;" horiz-adv-x="1025" 
d="M164 406q-19 -36 -20 -90q-1 -59 37 -94.5t98 -36.5q50 -1 95 43l22 42l5 21l2 23q2 18 -27 77q-8 11 -72 40v65l46 -6l38 -2l45 1l16 1l24 6l44 9q23 5 40 17q85 37 141 102q33 39 76 147l89 -2v-933q0 -107 -10 -148q-1 -10 -16 -65l-4 -15q0 -3 -7 -19l-17 -38
q-82 -183 -333 -183q-164 0 -273 83q-121 92 -121 251q0 119 121 230l54 -43q-79 -67 -80 -180q-1 -152 147 -228l31 -12l35 -10l37 -7l39 -2q129 -7 205 63.5t87 149.5l12 84l4 91v744h-14q-31 -48 -126 -97q-49 -25 -181 -64q20 -23 27 -58l7 -33l3 -28q0 -83 -59 -136.5
t-142 -54.5q-95 -1 -160 48q-71 53 -72 145q-1 57 31 125z" />
    <glyph glyph-name="Ntilde" unicode="&#x421;" horiz-adv-x="1025" 
d="M164 406q-19 -36 -20 -90q-1 -59 37 -94.5t98 -36.5q50 -1 95 43l22 42l5 21l2 23q2 18 -27 77q-8 11 -72 40v65l46 -6l38 -2l45 1l16 1l24 6l44 9q23 5 40 17q85 37 141 102q33 39 76 147l89 -2v-933q0 -107 -10 -148q-1 -10 -16 -65l-4 -15q0 -3 -7 -19l-17 -38
q-82 -183 -333 -183q-164 0 -273 83q-121 92 -121 251q0 119 121 230l54 -43q-79 -67 -80 -180q-1 -152 147 -228l31 -12l35 -10l37 -7l39 -2q129 -7 205 63.5t87 149.5l12 84l4 91v744h-14q-31 -48 -126 -97q-49 -25 -181 -64q20 -23 27 -58l7 -33l3 -28q0 -83 -59 -136.5
t-142 -54.5q-95 -1 -160 48q-71 53 -72 145q-1 57 31 125z" />
    <glyph glyph-name="Ograve" unicode="&#xd2;" horiz-adv-x="1415" 
d="M367 -37q-121 117 -175 203q-77 121 -77 252q0 66 21 129q19 56 59 106l38 47l26 31l20 20q80 80 149 179l37 53l36 58q35 56 70 131q10 22 49 130l34 158h115q-64 -352 -389 -701l4 -10q30 6 61 6q80 0 149.5 -37t110.5 -109q86 144 271 146q188 2 280 -162
q43 -77 44 -175q1 -119 -61 -226q-8 -15 -34 -53l-44 -57q-33 -42 -113 -119l-37 35q200 216 195 427l-1 39q0 7 -2 17l-6 22q-3 12 -10 28l-5 12q-2 9 -11 18q-35 58 -90 84q-36 17 -59 21l-44 7q-140 0 -193 -130q-34 -85 -34 -252v-20h-89v96l-4 29v25l-4 18l-9 47
q-35 185 -210 187q-85 1 -189 -111q-15 -33 -27 -69q-10 -55 -10 -68q0 -216 193 -427z" />
    <glyph glyph-name="Ograve" unicode="&#x422;" horiz-adv-x="1415" 
d="M367 -37q-121 117 -175 203q-77 121 -77 252q0 66 21 129q19 56 59 106l38 47l26 31l20 20q80 80 149 179l37 53l36 58q35 56 70 131q10 22 49 130l34 158h115q-64 -352 -389 -701l4 -10q30 6 61 6q80 0 149.5 -37t110.5 -109q86 144 271 146q188 2 280 -162
q43 -77 44 -175q1 -119 -61 -226q-8 -15 -34 -53l-44 -57q-33 -42 -113 -119l-37 35q200 216 195 427l-1 39q0 7 -2 17l-6 22q-3 12 -10 28l-5 12q-2 9 -11 18q-35 58 -90 84q-36 17 -59 21l-44 7q-140 0 -193 -130q-34 -85 -34 -252v-20h-89v96l-4 29v25l-4 18l-9 47
q-35 185 -210 187q-85 1 -189 -111q-15 -33 -27 -69q-10 -55 -10 -68q0 -216 193 -427z" />
    <glyph glyph-name="Oacute" unicode="&#xd3;" horiz-adv-x="970" 
d="M233 1460v-1083q0 -178 92 -270q62 -62 178 -62h28l20 1q11 1 18 4l34 9l17 8l15 10l15 12l20 18l57 60q33 77 34 120q1 23 -27 115l-33 77l-28 76l-8 36l-3 39q-4 49 66 143l57 -35l-21 -48l-5 -25l-2 -27l9 -56l12 -29l19 -41l34 -75q24 -53 24 -117v-39l-5 -31
q0 -17 -13 -48l-24 -58q-7 -34 -62 -81q-44 -37 -86 -59q-78 -41 -160 -41q-361 -2 -361 419v1078h89z" />
    <glyph glyph-name="Oacute" unicode="&#x423;" horiz-adv-x="970" 
d="M233 1460v-1083q0 -178 92 -270q62 -62 178 -62h28l20 1q11 1 18 4l34 9l17 8l15 10l15 12l20 18l57 60q33 77 34 120q1 23 -27 115l-33 77l-28 76l-8 36l-3 39q-4 49 66 143l57 -35l-21 -48l-5 -25l-2 -27l9 -56l12 -29l19 -41l34 -75q24 -53 24 -117v-39l-5 -31
q0 -17 -13 -48l-24 -58q-7 -34 -62 -81q-44 -37 -86 -59q-78 -41 -160 -41q-361 -2 -361 419v1078h89z" />
    <glyph glyph-name="Ocircumflex" unicode="&#xd4;" horiz-adv-x="1507" 
d="M753 -632q-294 -1 -476 200q-68 75 -122 220q-23 61 -30 128l-7 66l-3 72q-2 50 15 164q15 100 47 158q120 300 487 385q-96 96 -98 193q-1 64 64 107q57 38 123 38q94 0 139.5 -43.5t46.5 -101.5q1 -97 -98 -193q21 0 33 -3l63 -16q16 -4 28 -10q59 -21 111 -54
q63 -40 176 -162q65 -89 102 -218q19 -64 28 -125q10 -64 10 -119q0 -413 -293 -594q-147 -91 -346 -92zM753 -550q100 0 201 35t174 109q80 80 127 198q19 46 30 140l8 66l5 58q4 41 -12 134q-6 34 -16 67q-7 28 -22 70q-103 281 -401 370l-4 -6q96 -91 96 -188
q0 -75 -57 -118q-52 -39 -129 -40q-80 -1 -131 38q-55 42 -56 120q-1 72 96 188l-2 6q-202 -46 -334 -232l-44 -84l-45 -111q-18 -70 -21 -106l-5 -52l-2 -56q-5 -132 43 -266q25 -70 50 -103l31 -41l39 -46q156 -150 381 -150zM753 771q21 21 71 83q18 22 22 38l5 19l2 22
q0 90 -100 92t-101 -92q-1 -60 101 -162zM753 687q-100 -92 -101 -180q0 -26 33 -70l68 -19q99 0 100 89q1 85 -100 180z" />
    <glyph glyph-name="Ocircumflex" unicode="&#x424;" horiz-adv-x="1507" 
d="M753 -632q-294 -1 -476 200q-68 75 -122 220q-23 61 -30 128l-7 66l-3 72q-2 50 15 164q15 100 47 158q120 300 487 385q-96 96 -98 193q-1 64 64 107q57 38 123 38q94 0 139.5 -43.5t46.5 -101.5q1 -97 -98 -193q21 0 33 -3l63 -16q16 -4 28 -10q59 -21 111 -54
q63 -40 176 -162q65 -89 102 -218q19 -64 28 -125q10 -64 10 -119q0 -413 -293 -594q-147 -91 -346 -92zM753 -550q100 0 201 35t174 109q80 80 127 198q19 46 30 140l8 66l5 58q4 41 -12 134q-6 34 -16 67q-7 28 -22 70q-103 281 -401 370l-4 -6q96 -91 96 -188
q0 -75 -57 -118q-52 -39 -129 -40q-80 -1 -131 38q-55 42 -56 120q-1 72 96 188l-2 6q-202 -46 -334 -232l-44 -84l-45 -111q-18 -70 -21 -106l-5 -52l-2 -56q-5 -132 43 -266q25 -70 50 -103l31 -41l39 -46q156 -150 381 -150zM753 771q21 21 71 83q18 22 22 38l5 19l2 22
q0 90 -100 92t-101 -92q-1 -60 101 -162zM753 687q-100 -92 -101 -180q0 -26 33 -70l68 -19q99 0 100 89q1 85 -100 180z" />
    <glyph glyph-name="Otilde" unicode="&#xd5;" horiz-adv-x="835" 
d="M482 126q-14 5 -40 16l-19 5v51q16 24 73 111l135 206q33 52 70 110q-64 -30 -103 -39q-28 -6 -83 -7q-57 -1 -109 8q-21 3 -51 9q-16 4 -99 28q-12 3 -32 11t-62 24v103q78 -36 138 -54q51 -15 83 -22t79 -8q10 0 29 -1h28q93 0 190 51q34 18 45 26q29 21 50 41l1 -126
l-289 -447l18 -8q1 -1 5.5 -3.5t7.5 -4.5q8 -3 16 -7q16 -7 27 -15q3 -2 11 -8l31 -25q26 -21 62 -60q67 -73 88 -163q12 -50 13 -105v-20q0 -4 -2 -11q-11 -104 -40 -174q-15 -35 -24 -52t-35 -52q-43 -56 -68 -76q-44 -35 -106 -67q-11 -6 -51 -22q-35 -14 -98 -30
q-39 -10 -129 -18h-17q-14 -1 -22 -1l-61 -1v61q11 0 15 -1q84 0 193 32q60 18 104 40q82 42 132 101q22 26 44 60q33 51 51 154q6 35 6 69q0 43 -5 63q-2 25 -14 56q-16 42 -49 80q-47 55 -103 91q-24 16 -34 21z" />
    <glyph glyph-name="Otilde" unicode="&#x425;" horiz-adv-x="835" 
d="M482 126q-14 5 -40 16l-19 5v51q16 24 73 111l135 206q33 52 70 110q-64 -30 -103 -39q-28 -6 -83 -7q-57 -1 -109 8q-21 3 -51 9q-16 4 -99 28q-12 3 -32 11t-62 24v103q78 -36 138 -54q51 -15 83 -22t79 -8q10 0 29 -1h28q93 0 190 51q34 18 45 26q29 21 50 41l1 -126
l-289 -447l18 -8q1 -1 5.5 -3.5t7.5 -4.5q8 -3 16 -7q16 -7 27 -15q3 -2 11 -8l31 -25q26 -21 62 -60q67 -73 88 -163q12 -50 13 -105v-20q0 -4 -2 -11q-11 -104 -40 -174q-15 -35 -24 -52t-35 -52q-43 -56 -68 -76q-44 -35 -106 -67q-11 -6 -51 -22q-35 -14 -98 -30
q-39 -10 -129 -18h-17q-14 -1 -22 -1l-61 -1v61q11 0 15 -1q84 0 193 32q60 18 104 40q82 42 132 101q22 26 44 60q33 51 51 154q6 35 6 69q0 43 -5 63q-2 25 -14 56q-16 42 -49 80q-47 55 -103 91q-24 16 -34 21z" />
    <glyph glyph-name="Odieresis" unicode="&#xd6;" horiz-adv-x="1388" 
d="M175 716l2 -150q3 -195 116 -197q39 -1 82 39q20 38 27 90q21 166 95 221q48 36 120 36q94 0 164 -84q74 84 185 84q279 0 279 -326l-8 -735l-9 -44q-36 -175 -222 -244l-119 -28l-70 -7l-79 -3q-242 -9 -378 100q-123 99 -124 234q-1 163 113 271l47 -43
q-66 -84 -66 -209q0 -136 145 -211q116 -60 263 -60q167 0 247 38q74 35 131 119q25 51 30 94l7 56l3 66v595q0 255 -184 255q-150 0 -150 -209v-177h-91v177q0 93 -14 136q-25 73 -98 73q-41 0 -66 -20q-35 -29 -55 -147q-10 -59 -28 -107q-42 -112 -168 -112
q-138 0 -178 83l-28 89l-7 51l-3 54v152h89z" />
    <glyph glyph-name="Odieresis" unicode="&#x426;" horiz-adv-x="1388" 
d="M175 716l2 -150q3 -195 116 -197q39 -1 82 39q20 38 27 90q21 166 95 221q48 36 120 36q94 0 164 -84q74 84 185 84q279 0 279 -326l-8 -735l-9 -44q-36 -175 -222 -244l-119 -28l-70 -7l-79 -3q-242 -9 -378 100q-123 99 -124 234q-1 163 113 271l47 -43
q-66 -84 -66 -209q0 -136 145 -211q116 -60 263 -60q167 0 247 38q74 35 131 119q25 51 30 94l7 56l3 66v595q0 255 -184 255q-150 0 -150 -209v-177h-91v177q0 93 -14 136q-25 73 -98 73q-41 0 -66 -20q-35 -29 -55 -147q-10 -59 -28 -107q-42 -112 -168 -112
q-138 0 -178 83l-28 89l-7 51l-3 54v152h89z" />
    <glyph glyph-name="multiply" unicode="&#xd7;" horiz-adv-x="1472" 
d="M740 597q109 156 298 158q78 1 142.5 -33.5t120.5 -112.5q52 -71 52 -178q1 -228 -209 -336q124 -33 180 -127q6 -9 40 -97l12 -55l4 -56q6 -88 -40 -189q-93 -201 -411 -203q-252 -1 -393 140q-66 66 -66 147q0 105 74 179l61 -43q-40 -61 -41 -111q-2 -132 173 -199
l92 -23l49 -6l57 -2q183 -6 270 89q81 89 81 219q0 195 -149 262q-65 29 -132 29h-21v54q170 29 240 177q34 72 35 151q1 137 -110 207q-55 34 -116 35q-165 2 -250 -166q21 -63 21 -146q0 -216 -152 -336q-77 -61 -193 -62q-196 -1 -298 199q-18 45 -33 96l-9 50l-4 51
q-7 85 40 191q90 205 304 205q180 0 281 -158zM459 45q141 -2 215 150q36 74 36 164q0 175 -118 268q-57 45 -133 46q-115 1 -187 -102q-63 -92 -63 -212q0 -116 37 -174l18 -28l24 -31q26 -28 56 -46q57 -34 115 -35z" />
    <glyph glyph-name="multiply" unicode="&#x427;" horiz-adv-x="1472" 
d="M740 597q109 156 298 158q78 1 142.5 -33.5t120.5 -112.5q52 -71 52 -178q1 -228 -209 -336q124 -33 180 -127q6 -9 40 -97l12 -55l4 -56q6 -88 -40 -189q-93 -201 -411 -203q-252 -1 -393 140q-66 66 -66 147q0 105 74 179l61 -43q-40 -61 -41 -111q-2 -132 173 -199
l92 -23l49 -6l57 -2q183 -6 270 89q81 89 81 219q0 195 -149 262q-65 29 -132 29h-21v54q170 29 240 177q34 72 35 151q1 137 -110 207q-55 34 -116 35q-165 2 -250 -166q21 -63 21 -146q0 -216 -152 -336q-77 -61 -193 -62q-196 -1 -298 199q-18 45 -33 96l-9 50l-4 51
q-7 85 40 191q90 205 304 205q180 0 281 -158zM459 45q141 -2 215 150q36 74 36 164q0 175 -118 268q-57 45 -133 46q-115 1 -187 -102q-63 -92 -63 -212q0 -116 37 -174l18 -28l24 -31q26 -28 56 -46q57 -34 115 -35z" />
    <glyph glyph-name="Oslash" unicode="&#xd8;" horiz-adv-x="919" 
d="M775 1458v-1719q0 -40 -4 -59v-18l-4 -14l-9 -34q-17 -65 -54 -126q-72 -120 -286 -120q-153 0 -256 82.5t-104 235.5q-1 204 143 297l49 -53q-97 -79 -98 -225q-1 -145 118 -218q34 -21 67 -27l38 -7l43 -3q269 -19 269 298v718h-203q-123 0 -123 -97q0 -55 47 -102
l-49 -41q-48 39 -70 73l-9 18l-7 22l-4 23l-2 26q-5 60 52 111q52 47 165 47h203v758l-279 -330l-57 43l354 443z" />
    <glyph glyph-name="Oslash" unicode="&#x428;" horiz-adv-x="919" 
d="M775 1458v-1719q0 -40 -4 -59v-18l-4 -14l-9 -34q-17 -65 -54 -126q-72 -120 -286 -120q-153 0 -256 82.5t-104 235.5q-1 204 143 297l49 -53q-97 -79 -98 -225q-1 -145 118 -218q34 -21 67 -27l38 -7l43 -3q269 -19 269 298v718h-203q-123 0 -123 -97q0 -55 47 -102
l-49 -41q-48 39 -70 73l-9 18l-7 22l-4 23l-2 26q-5 60 52 111q52 47 165 47h203v758l-279 -330l-57 43l354 443z" />
    <glyph glyph-name="Ugrave" unicode="&#xd9;" horiz-adv-x="1413" 
d="M992 -630q-93 111 -259 168q-91 31 -170 42l-87 12l-78 4l-54 -3l-67 -3v88q54 12 117 12h27q19 0 22 -2q-107 89 -180 203q-20 30 -61 112l-49 122q-37 139 -38 228q-2 245 162 352q75 49 162 50q215 2 273 -175q95 173 289 175q165 1 253 -133q43 -67 44 -160
q1 -127 -51.5 -243.5t-155.5 -195.5l-37 41q76 79 111 178q22 62 27 98l7 49l3 48q2 35 -7 73q-26 107 -111 138l-49 18l-38 7q-182 0 -229 -256l-11 -120l-4 -139h-89l-2 119q-2 123 -10 173q-15 96 -64 159t-153 64q-80 1 -154 -85q-77 -90 -72 -237l3 -84q0 -15 2 -34
l9 -42q16 -77 45 -139q59 -128 146 -209l43 -40l44 -37q52 -44 86 -61l162 -82l69 -32l64 -33l102 -57q82 -46 164 -131h-156z" />
    <glyph glyph-name="Ugrave" unicode="&#x429;" horiz-adv-x="1413" 
d="M992 -630q-93 111 -259 168q-91 31 -170 42l-87 12l-78 4l-54 -3l-67 -3v88q54 12 117 12h27q19 0 22 -2q-107 89 -180 203q-20 30 -61 112l-49 122q-37 139 -38 228q-2 245 162 352q75 49 162 50q215 2 273 -175q95 173 289 175q165 1 253 -133q43 -67 44 -160
q1 -127 -51.5 -243.5t-155.5 -195.5l-37 41q76 79 111 178q22 62 27 98l7 49l3 48q2 35 -7 73q-26 107 -111 138l-49 18l-38 7q-182 0 -229 -256l-11 -120l-4 -139h-89l-2 119q-2 123 -10 173q-15 96 -64 159t-153 64q-80 1 -154 -85q-77 -90 -72 -237l3 -84q0 -15 2 -34
l9 -42q16 -77 45 -139q59 -128 146 -209l43 -40l44 -37q52 -44 86 -61l162 -82l69 -32l64 -33l102 -57q82 -46 164 -131h-156z" />
    <glyph glyph-name="Uacute" unicode="&#xda;" horiz-adv-x="904" 
d="M775 755v-1016q0 -40 -4 -59v-18l-4 -14l-9 -34q-17 -65 -54 -126q-72 -120 -286 -120q-153 0 -256 82.5t-104 235.5q-1 204 143 297l49 -53q-97 -79 -98 -225q-1 -145 118 -218q34 -21 67 -27l38 -7l43 -3q269 -19 269 298v623q-91 -130 -242 -131q-76 -1 -151 33
q-78 35 -122.5 94.5t-44.5 137.5q0 125 72 266l72 -33q-28 -55 -36 -102l-7 -39l-6 -41q0 -107 59.5 -170.5t165.5 -63.5q240 0 240 338v95h88z" />
    <glyph glyph-name="Uacute" unicode="&#x42a;" horiz-adv-x="904" 
d="M775 755v-1016q0 -40 -4 -59v-18l-4 -14l-9 -34q-17 -65 -54 -126q-72 -120 -286 -120q-153 0 -256 82.5t-104 235.5q-1 204 143 297l49 -53q-97 -79 -98 -225q-1 -145 118 -218q34 -21 67 -27l38 -7l43 -3q269 -19 269 298v623q-91 -130 -242 -131q-76 -1 -151 33
q-78 35 -122.5 94.5t-44.5 137.5q0 125 72 266l72 -33q-28 -55 -36 -102l-7 -39l-6 -41q0 -107 59.5 -170.5t165.5 -63.5q240 0 240 338v95h88z" />
    <glyph glyph-name="Ucircumflex" unicode="&#xdb;" horiz-adv-x="1165" 
d="M177 962q-65 45 -107 127.5t-41 126.5l1 31l1 20q1 11 4 18q1 11 7 32l13 34q60 156 224 158q78 1 140 -38t96 -110q75 148 250 148q254 0 254 -328v-822q0 -244 -159 -348q-73 -48 -163 -48q-85 0 -154.5 45t-124.5 141l-17 44l-14 50l-9 56l-3 60q-5 106 42 207
q88 188 280 189q153 1 234 -152v578q0 246 -172 246q-118 0 -163 -88q-26 -51 -33 -104l-8 -63l-3 -77v-35h-76l2 53q4 111 -36 219q-35 94 -147 95q-83 1 -130 -68q-41 -61 -42 -147q-1 -122 97 -205zM697 45q130 0 195 147q33 75 33 167q0 99 -26 154q-24 68 -77 112
q-56 47 -125 48q-65 1 -117.5 -46.5t-81.5 -121.5q-17 -43 -21 -73l-5 -35l-2 -38q-4 -69 30 -147q29 -68 85 -127q27 -18 54 -30l31 -7z" />
    <glyph glyph-name="Ucircumflex" unicode="&#x42b;" horiz-adv-x="1165" 
d="M177 962q-65 45 -107 127.5t-41 126.5l1 31l1 20q1 11 4 18q1 11 7 32l13 34q60 156 224 158q78 1 140 -38t96 -110q75 148 250 148q254 0 254 -328v-822q0 -244 -159 -348q-73 -48 -163 -48q-85 0 -154.5 45t-124.5 141l-17 44l-14 50l-9 56l-3 60q-5 106 42 207
q88 188 280 189q153 1 234 -152v578q0 246 -172 246q-118 0 -163 -88q-26 -51 -33 -104l-8 -63l-3 -77v-35h-76l2 53q4 111 -36 219q-35 94 -147 95q-83 1 -130 -68q-41 -61 -42 -147q-1 -122 97 -205zM697 45q130 0 195 147q33 75 33 167q0 99 -26 154q-24 68 -77 112
q-56 47 -125 48q-65 1 -117.5 -46.5t-81.5 -121.5q-17 -43 -21 -73l-5 -35l-2 -38q-4 -69 30 -147q29 -68 85 -127q27 -18 54 -30l31 -7z" />
    <glyph glyph-name="Udieresis" unicode="&#xdc;" horiz-adv-x="892" 
d="M144 0v1232q0 120 55 194q62 83 178 83q102 0 163 -58.5t61 -150.5q1 -260 -368 -433v-225q49 61 120 87q75 27 117 26l30 -1l20 -1q11 -1 18 -4l25 -6l34 -11q91 -29 139 -122q41 -81 41 -185q0 -228 -127 -425h-94q126 209 127 423q1 105 -52 178q-55 77 -169 72
l-23 -1q-8 0 -26 -7q-28 -8 -57 -21q-62 -29 -123 -125v-519h-89zM233 941q150 68 227 197q46 77 47 162q1 56 -34 91t-91 36q-149 2 -149 -189v-297z" />
    <glyph glyph-name="Udieresis" unicode="&#x42c;" horiz-adv-x="892" 
d="M144 0v1232q0 120 55 194q62 83 178 83q102 0 163 -58.5t61 -150.5q1 -260 -368 -433v-225q49 61 120 87q75 27 117 26l30 -1l20 -1q11 -1 18 -4l25 -6l34 -11q91 -29 139 -122q41 -81 41 -185q0 -228 -127 -425h-94q126 209 127 423q1 105 -52 178q-55 77 -169 72
l-23 -1q-8 0 -26 -7q-28 -8 -57 -21q-62 -29 -123 -125v-519h-89zM233 941q150 68 227 197q46 77 47 162q1 56 -34 91t-91 36q-149 2 -149 -189v-297z" />
    <glyph glyph-name="Yacute" unicode="&#xdd;" horiz-adv-x="1284" 
d="M472 728q-143 -128 -219 -317q-72 -179 -72 -380q0 -257 177 -452q117 -129 337 -129q250 0 356 165q31 48 39 95l9 53l4 52q3 35 -9 93q-8 40 -29 74q-39 63 -96 99q-43 22 -124 46v64q98 0 165 50q74 55 75 149q0 48 -26 85q-20 28 -81 66l-58 36q-24 15 -47 35
q-43 38 -60 71q-15 30 -15 72h71q14 -43 41 -66l37 -25l59 -31q22 -11 63 -36l28 -21l29 -26q52 -47 53 -140q2 -171 -180 -252q198 -81 198 -333q0 -213 -147 -336q-81 -67 -160 -90l-42 -12l-48 -10l-51 -7l-52 -2q-147 -6 -305 78q-304 161 -306 583q-1 175 49 321
q10 29 54 132l6 14l8 14l18 31l39 55q69 97 169 175z" />
    <glyph glyph-name="Yacute" unicode="&#x42d;" horiz-adv-x="1284" 
d="M472 728q-143 -128 -219 -317q-72 -179 -72 -380q0 -257 177 -452q117 -129 337 -129q250 0 356 165q31 48 39 95l9 53l4 52q3 35 -9 93q-8 40 -29 74q-39 63 -96 99q-43 22 -124 46v64q98 0 165 50q74 55 75 149q0 48 -26 85q-20 28 -81 66l-58 36q-24 15 -47 35
q-43 38 -60 71q-15 30 -15 72h71q14 -43 41 -66l37 -25l59 -31q22 -11 63 -36l28 -21l29 -26q52 -47 53 -140q2 -171 -180 -252q198 -81 198 -333q0 -213 -147 -336q-81 -67 -160 -90l-42 -12l-48 -10l-51 -7l-52 -2q-147 -6 -305 78q-304 161 -306 583q-1 175 49 321
q10 29 54 132l6 14l8 14l18 31l39 55q69 97 169 175z" />
    <glyph glyph-name="Thorn" unicode="&#xde;" horiz-adv-x="833" 
d="M671 1460h88v-1101q0 -235 -161 -345q-75 -51 -161 -51q-85 0 -154.5 45t-124.5 141l-17 44l-14 50l-9 56l-3 60q-5 106 42 207q88 188 280 189q153 1 234 -152v857zM437 45q126 -2 194 152q33 75 33 162q0 169 -107 267q-51 46 -120 47q-104 1 -171 -109
q-57 -95 -57 -205q0 -153 115 -274q54 -39 113 -40z" />
    <glyph glyph-name="Thorn" unicode="&#x42e;" horiz-adv-x="833" 
d="M671 1460h88v-1101q0 -235 -161 -345q-75 -51 -161 -51q-85 0 -154.5 45t-124.5 141l-17 44l-14 50l-9 56l-3 60q-5 106 42 207q88 188 280 189q153 1 234 -152v857zM437 45q126 -2 194 152q33 75 33 162q0 169 -107 267q-51 46 -120 47q-104 1 -171 -109
q-57 -95 -57 -205q0 -153 115 -274q54 -39 113 -40z" />
    <glyph glyph-name="germandbls" unicode="&#xdf;" horiz-adv-x="1148" 
d="M402 -632l2 72q3 125 -10 198v25l-4 19l-9 58l-22 122l-20 103l-9 29l-20 85l-18 71l-83 333l-18 54l-49 184l-48 189q-36 142 -36 257q0 342 283 342q167 0 248 -168h6q18 77 80 122.5t143 45.5q112 0 182 -81q67 -77 68 -190q1 -192 -213 -346l-41 41q85 78 117 142
l17 34l15 42l8 42l3 45q4 57 -23 106q-23 43 -61 66l-74 19q-22 0 -35 -5l-24 -9l-21 -12q-47 -27 -73 -106l-13 -40l-10 -51l-6 -55l-2 -62v-113h-88v113q0 339 -208 340q-98 1 -146 -89q-38 -70 -38 -177q0 -91 88 -464h666q-13 -88 -30 -168l-18 -85l-22 -93l-36 -143
l-13 -38l-31 -109l-21 -62l-20 -62q-11 -30 -36 -102l-9 -29l-9 -26l-11 -26l-32 -87q-44 -121 -126 -301h-90zM261 619l176 -722l31 -188l8 -73l4 -89h14l54 151l54 160l36 114l76 258l50 197l42 192h-545z" />
    <glyph glyph-name="germandbls" unicode="&#x42f;" horiz-adv-x="1148" 
d="M402 -632l2 72q3 125 -10 198v25l-4 19l-9 58l-22 122l-20 103l-9 29l-20 85l-18 71l-83 333l-18 54l-49 184l-48 189q-36 142 -36 257q0 342 283 342q167 0 248 -168h6q18 77 80 122.5t143 45.5q112 0 182 -81q67 -77 68 -190q1 -192 -213 -346l-41 41q85 78 117 142
l17 34l15 42l8 42l3 45q4 57 -23 106q-23 43 -61 66l-74 19q-22 0 -35 -5l-24 -9l-21 -12q-47 -27 -73 -106l-13 -40l-10 -51l-6 -55l-2 -62v-113h-88v113q0 339 -208 340q-98 1 -146 -89q-38 -70 -38 -177q0 -91 88 -464h666q-13 -88 -30 -168l-18 -85l-22 -93l-36 -143
l-13 -38l-31 -109l-21 -62l-20 -62q-11 -30 -36 -102l-9 -29l-9 -26l-11 -26l-32 -87q-44 -121 -126 -301h-90zM261 619l176 -722l31 -188l8 -73l4 -89h14l54 151l54 160l36 114l76 258l50 197l42 192h-545z" />
    <glyph glyph-name="agrave" unicode="&#xe0;" horiz-adv-x="1040" 
d="M792 511l131 -121v-117l-195 174l-6 -6q30 -185 68 -265l40 -135l25 -91q21 -76 21 -166q0 -193 -110.5 -304t-303.5 -112q-121 -1 -215 43.5t-141.5 122t-47.5 173.5q0 171 135 306l47 -44q-87 -111 -88 -234q-1 -122 96 -206q93 -81 216 -81q148 0 234 94q82 90 83 240
q0 96 -53 267l-30 96l-31 105q-18 60 -33 138l-39 -29l-41 -22l-23 -8l-26 -7l-22 -4h-15q-87 0 -145 47q-62 50 -63 135q-1 81 56 130q53 46 135 47q95 1 185 -56q12 68 37 212l16 96q6 36 6 86q0 98 -73 159q-51 43 -163 83q-70 15 -129 49q18 -153 15 -221l-2 -48l-2 -65
h-68q0 172 -14 252q-18 107 -82 236h129q23 -46 60 -72q29 -21 122 -49q131 -40 216 -105q90 -69 86 -213l-1 -38l-10 -79q0 -12 -3 -18l-12 -57q-22 -105 -42 -261l201 181v-123zM623 478v49q-75 69 -168 70q-108 1 -108 -92q0 -28 36 -79q36 -27 79 -28q32 -1 83.5 23.5
t77.5 56.5z" />
    <glyph glyph-name="agrave" unicode="&#x430;" horiz-adv-x="1040" 
d="M792 511l131 -121v-117l-195 174l-6 -6q30 -185 68 -265l40 -135l25 -91q21 -76 21 -166q0 -193 -110.5 -304t-303.5 -112q-121 -1 -215 43.5t-141.5 122t-47.5 173.5q0 171 135 306l47 -44q-87 -111 -88 -234q-1 -122 96 -206q93 -81 216 -81q148 0 234 94q82 90 83 240
q0 96 -53 267l-30 96l-31 105q-18 60 -33 138l-39 -29l-41 -22l-23 -8l-26 -7l-22 -4h-15q-87 0 -145 47q-62 50 -63 135q-1 81 56 130q53 46 135 47q95 1 185 -56q12 68 37 212l16 96q6 36 6 86q0 98 -73 159q-51 43 -163 83q-70 15 -129 49q18 -153 15 -221l-2 -48l-2 -65
h-68q0 172 -14 252q-18 107 -82 236h129q23 -46 60 -72q29 -21 122 -49q131 -40 216 -105q90 -69 86 -213l-1 -38l-10 -79q0 -12 -3 -18l-12 -57q-22 -105 -42 -261l201 181v-123zM623 478v49q-75 69 -168 70q-108 1 -108 -92q0 -28 36 -79q36 -27 79 -28q32 -1 83.5 23.5
t77.5 56.5z" />
    <glyph glyph-name="aacute" unicode="&#xe1;" horiz-adv-x="902" 
d="M232 1460v-668l307 358v-123l-307 -348v-76q78 151 234 152q187 1 277 -189q47 -99 44 -207l-1 -37v-17l-4 -18l-4 -27l-5 -25q-2 -16 -8 -24q-43 -148 -163 -213q-63 -34 -136 -35q-84 -1 -156 46q-68 44 -123 140l-17 44l-14 50l-9 56l-3 60v1101h88zM466 45
q122 -2 191 138q36 74 36 176q0 183 -108 271q-52 42 -119 43q-89 1 -154 -84q-24 -31 -42.5 -73t-23.5 -75l-6 -38l-2 -44q-4 -88 33 -168q35 -75 90.5 -110t104.5 -36z" />
    <glyph glyph-name="aacute" unicode="&#x431;" horiz-adv-x="902" 
d="M232 1460v-668l307 358v-123l-307 -348v-76q78 151 234 152q187 1 277 -189q47 -99 44 -207l-1 -37v-17l-4 -18l-4 -27l-5 -25q-2 -16 -8 -24q-43 -148 -163 -213q-63 -34 -136 -35q-84 -1 -156 46q-68 44 -123 140l-17 44l-14 50l-9 56l-3 60v1101h88zM466 45
q122 -2 191 138q36 74 36 176q0 183 -108 271q-52 42 -119 43q-89 1 -154 -84q-24 -31 -42.5 -73t-23.5 -75l-6 -38l-2 -44q-4 -88 33 -168q35 -75 90.5 -110t104.5 -36z" />
    <glyph glyph-name="acircumflex" unicode="&#xe2;" horiz-adv-x="850" 
d="M724 588l1 -8v-34l-2 -11l-4 -27q-1 -8 -5 -18l-6 -15l-9 -25l-5 -10l-19 -32q-16 -27 -41 -46l-52 -31q30 -3 64 -29q24 -18 50 -50q19 -22 27 -46l12 -34l14 -47l12 -87l4 -151v-65l-2 -112l-2 -26l-7 -37l-12 -46q-13 -51 -41.5 -95.5t-76.5 -83.5q-82 -67 -212 -68
q-91 -1 -184 42q-40 18 -65 50l-56 70q-21 37 -36 85l-9 49l-4 44q0 134 121 277l49 -47q-10 -10 -56 -97l-15 -61l-5 -70l10 -60q5 -27 23 -56q51 -80 125 -105q47 -16 102 -17q88 -1 153 46q54 39 79 106l19 82l4 70l4 194q0 130 -36 200q-45 89 -158 117l-25 3l-35 2
l-75 -2l-3 81h41l35 1q21 1 30.5 3t64.5 25l41 23l15 12l18 17q15 14 24 31l16 37l12 38l4 22l1 21l-13 43l-22 28l-36 27l-30 17l-33 11l-21 5l-20 3l-23 2l-45 3l-61 2l-37 5l-30 10l-26 13l-25 18l-19 24l-13 21l-10 20l-8 21l-6 34v30l2 31l7 28l7 18l7 15l8 13l8 11
l10 11l11 10l16 13l20 12l22 9l27 8l46 9h63l56 -8l28 -10l19 -10l18 -12l14 -14l14 -19l11 -24l-43 -23l-22 16l-39 17l-55 13l-66 -2l-56 -18l-24 -20l-21 -31l-11 -38l-1 -27l2 -26l7 -20l11 -16l15 -15l15 -9l22 -8l26 -3h29l35 -1l34 -2l42 -3l36 -5l29 -6l19 -6l12 -4
l14 -6l21 -10l14 -9l16 -11l8 -7l19 -19l25 -28l26 -59z" />
    <glyph glyph-name="acircumflex" unicode="&#x432;" horiz-adv-x="850" 
d="M724 588l1 -8v-34l-2 -11l-4 -27q-1 -8 -5 -18l-6 -15l-9 -25l-5 -10l-19 -32q-16 -27 -41 -46l-52 -31q30 -3 64 -29q24 -18 50 -50q19 -22 27 -46l12 -34l14 -47l12 -87l4 -151v-65l-2 -112l-2 -26l-7 -37l-12 -46q-13 -51 -41.5 -95.5t-76.5 -83.5q-82 -67 -212 -68
q-91 -1 -184 42q-40 18 -65 50l-56 70q-21 37 -36 85l-9 49l-4 44q0 134 121 277l49 -47q-10 -10 -56 -97l-15 -61l-5 -70l10 -60q5 -27 23 -56q51 -80 125 -105q47 -16 102 -17q88 -1 153 46q54 39 79 106l19 82l4 70l4 194q0 130 -36 200q-45 89 -158 117l-25 3l-35 2
l-75 -2l-3 81h41l35 1q21 1 30.5 3t64.5 25l41 23l15 12l18 17q15 14 24 31l16 37l12 38l4 22l1 21l-13 43l-22 28l-36 27l-30 17l-33 11l-21 5l-20 3l-23 2l-45 3l-61 2l-37 5l-30 10l-26 13l-25 18l-19 24l-13 21l-10 20l-8 21l-6 34v30l2 31l7 28l7 18l7 15l8 13l8 11
l10 11l11 10l16 13l20 12l22 9l27 8l46 9h63l56 -8l28 -10l19 -10l18 -12l14 -14l14 -19l11 -24l-43 -23l-22 16l-39 17l-55 13l-66 -2l-56 -18l-24 -20l-21 -31l-11 -38l-1 -27l2 -26l7 -20l11 -16l15 -15l15 -9l22 -8l26 -3h29l35 -1l34 -2l42 -3l36 -5l29 -6l19 -6l12 -4
l14 -6l21 -10l14 -9l16 -11l8 -7l19 -19l25 -28l26 -59z" />
    <glyph glyph-name="atilde" unicode="&#xe3;" horiz-adv-x="808" 
d="M177 771l207 -322l211 322q40 61 41 115q1 32 -23.5 52t-56.5 20q-94 0 -94 -115h-52v18q0 168 164 170q60 1 103.5 -35.5t44.5 -95.5q1 -46 -22 -87l-26 -47l-34 -54l-213 -330l248 -382h-88l-205 312l-173 -265q204 -156 205 -338q1 -170 -143 -268q-71 -48 -176 -73
v52q125 26 188 140q37 66 37 130q1 166 -227 310l246 380l-253 391h91z" />
    <glyph glyph-name="atilde" unicode="&#x433;" horiz-adv-x="808" 
d="M177 771l207 -322l211 322q40 61 41 115q1 32 -23.5 52t-56.5 20q-94 0 -94 -115h-52v18q0 168 164 170q60 1 103.5 -35.5t44.5 -95.5q1 -46 -22 -87l-26 -47l-34 -54l-213 -330l248 -382h-88l-205 312l-173 -265q204 -156 205 -338q1 -170 -143 -268q-71 -48 -176 -73
v52q125 26 188 140q37 66 37 130q1 166 -227 310l246 380l-253 391h91z" />
    <glyph glyph-name="adieresis" unicode="&#xe4;" horiz-adv-x="904" 
d="M361 1509l205 -129q165 -104 166 -238q1 -121 -106 -178q130 -70 131 -199q1 -133 -131 -189q163 -81 164 -281q1 -107 -45.5 -178t-129.5 -114q-45 -23 -82 -30l-38 -7l-40 -3q-33 -3 -86 10q-41 10 -81 32q-80 44 -125.5 119.5t-47.5 183.5h90q0 -153 128 -229l68 -25
q24 -9 58 -9q106 0 171 66t65 172q1 248 -334 289v82l148 -20h26l16 1l18 7l49 27q43 36 44 96q1 65 -79 131q-46 27 -93 42l-53 17l-76 21v86q108 -33 164 -33q44 0 78.5 35.5t34.5 79.5q1 91 -101 154l-176 109v102z" />
    <glyph glyph-name="adieresis" unicode="&#x434;" horiz-adv-x="904" 
d="M361 1509l205 -129q165 -104 166 -238q1 -121 -106 -178q130 -70 131 -199q1 -133 -131 -189q163 -81 164 -281q1 -107 -45.5 -178t-129.5 -114q-45 -23 -82 -30l-38 -7l-40 -3q-33 -3 -86 10q-41 10 -81 32q-80 44 -125.5 119.5t-47.5 183.5h90q0 -153 128 -229l68 -25
q24 -9 58 -9q106 0 171 66t65 172q1 248 -334 289v82l148 -20h26l16 1l18 7l49 27q43 36 44 96q1 65 -79 131q-46 27 -93 42l-53 17l-76 21v86q108 -33 164 -33q44 0 78.5 35.5t34.5 79.5q1 91 -101 154l-176 109v102z" />
    <glyph glyph-name="aring" unicode="&#xe5;" horiz-adv-x="1128" 
d="M828 576h246l1 -58h-244l-1 -351q0 -56 -7 -90q-8 -40 -35 -92l-35 -39q-18 -20 -55 -34l-65 -14l-80 -5q-124 -8 -266 85q-129 84 -129 257q0 200 127 268q37 20 68 31l71 26l70 16l75 7l80 3l78 2v209h-131l-36 -2q-83 6 -144 23q-79 22 -140 62q-116 58 -118 267
q-1 78 31 151q34 79 89 120l49 37q4 3 23 13q9 5 32 16q41 17 107 25q13 1 42 2l19 -1q37 -2 102 -21q37 -11 78 -39q63 -44 87 -126q6 -21 14 -76q3 -21 3 -67v-322h241v-62h-247v-221zM727 518q-132 0 -249 -36q-121 -37 -150 -78l-34 -48q-24 -34 -24 -88v-55l6 -67
q5 -54 77 -109q87 -66 196 -66h18q16 0 28 1q49 2 79 25q51 39 51 123zM680 1379q-18 18 -100 47l-50 4l-72 -10q-51 -17 -83 -37q-63 -39 -95 -123q-18 -47 -18 -120q0 -131 104 -205q69 -49 254 -72q49 -6 107 -6v409q0 78 -47 113z" />
    <glyph glyph-name="aring" unicode="&#x435;" horiz-adv-x="1128" 
d="M828 576h246l1 -58h-244l-1 -351q0 -56 -7 -90q-8 -40 -35 -92l-35 -39q-18 -20 -55 -34l-65 -14l-80 -5q-124 -8 -266 85q-129 84 -129 257q0 200 127 268q37 20 68 31l71 26l70 16l75 7l80 3l78 2v209h-131l-36 -2q-83 6 -144 23q-79 22 -140 62q-116 58 -118 267
q-1 78 31 151q34 79 89 120l49 37q4 3 23 13q9 5 32 16q41 17 107 25q13 1 42 2l19 -1q37 -2 102 -21q37 -11 78 -39q63 -44 87 -126q6 -21 14 -76q3 -21 3 -67v-322h241v-62h-247v-221zM727 518q-132 0 -249 -36q-121 -37 -150 -78l-34 -48q-24 -34 -24 -88v-55l6 -67
q5 -54 77 -109q87 -66 196 -66h18q16 0 28 1q49 2 79 25q51 39 51 123zM680 1379q-18 18 -100 47l-50 4l-72 -10q-51 -17 -83 -37q-63 -39 -95 -123q-18 -47 -18 -120q0 -131 104 -205q69 -49 254 -72q49 -6 107 -6v409q0 78 -47 113z" />
    <glyph glyph-name="ae" unicode="&#xe6;" horiz-adv-x="1388" 
d="M332 960v20l348 300l359 -300v-20l-359 200zM175 716l2 -150q3 -195 116 -197q39 -1 82 39q20 38 27 90q21 166 95 221q48 36 120 36q94 0 164 -84q74 84 185 84q279 0 279 -326l-8 -735l-9 -44q-36 -175 -222 -244l-119 -28l-70 -7l-79 -3q-242 -9 -378 100
q-123 99 -124 234q-1 163 113 271l47 -43q-66 -84 -66 -209q0 -136 145 -211q116 -60 263 -60q167 0 247 38q74 35 131 119q25 51 30 94l7 56l3 66v595q0 255 -184 255q-150 0 -150 -209v-177h-91v177q0 93 -14 136q-25 73 -98 73q-41 0 -66 -20q-35 -29 -55 -147
q-10 -59 -28 -107q-42 -112 -168 -112q-138 0 -178 83l-28 89l-7 51l-3 54v152h89z" />
    <glyph glyph-name="ae" unicode="&#x436;" horiz-adv-x="1388" 
d="M332 960v20l348 300l359 -300v-20l-359 200zM175 716l2 -150q3 -195 116 -197q39 -1 82 39q20 38 27 90q21 166 95 221q48 36 120 36q94 0 164 -84q74 84 185 84q279 0 279 -326l-8 -735l-9 -44q-36 -175 -222 -244l-119 -28l-70 -7l-79 -3q-242 -9 -378 100
q-123 99 -124 234q-1 163 113 271l47 -43q-66 -84 -66 -209q0 -136 145 -211q116 -60 263 -60q167 0 247 38q74 35 131 119q25 51 30 94l7 56l3 66v595q0 255 -184 255q-150 0 -150 -209v-177h-91v177q0 93 -14 136q-25 73 -98 73q-41 0 -66 -20q-35 -29 -55 -147
q-10 -59 -28 -107q-42 -112 -168 -112q-138 0 -178 83l-28 89l-7 51l-3 54v152h89z" />
    <glyph glyph-name="ccedilla" unicode="&#xe7;" horiz-adv-x="1355" 
d="M636 369q4 -88 -33 -168q-34 -74 -89.5 -109.5t-105.5 -36.5q-25 -1 -38 3l-19 5l-15 7l-11 7l-16 10q-54 34 -93 106q-21 38 -27 80l-7 46l-3 50q-5 76 28 152q68 160 201 162q128 2 196 -156q19 -43 24 -76l6 -38zM1181 367q5 -76 -28 -152q-68 -160 -201 -162
q-128 -2 -196 156q-19 43 -24 76l-6 38l-2 44q-4 88 33 168q34 74 89.5 109.5t105.5 36.5q25 1 38 -3l19 -5l15 -7l11 -7l16 -10q54 -34 93 -106q21 -38 27 -80l7 -46zM470 -785q154 -1 204.5 101t49.5 210l-6 597q78 -151 234 -152q185 -1 279 188q45 91 45 208
q0 92 -41 185t-110 151q-72 60 -173 60q-85 0 -156 -46q-16 -9 -65 -52l-1 545q0 90 34 152q43 76 126 77q81 1 125 -73q36 -61 37 -148q-1 -10 1 -12h93q-7 43 -16 79q-21 88 -47 132q-62 103 -193 104q-154 1 -204.5 -101t-49.5 -210l6 -597q-78 151 -234 152
q-185 1 -279 -188q-45 -91 -45 -208q0 -92 41 -185t111.5 -152t171.5 -59q85 0 156 46q34 22 64 58v0q-1 -142 3 -346q4 -213 4 -205q0 -113 -54 -174q-48 -54 -111 -55q-83 -1 -126 75q-36 62 -36 151l-96 1q2 -122 68 -211q73 -97 190 -98z" />
    <glyph glyph-name="ccedilla" unicode="&#x437;" horiz-adv-x="1355" 
d="M636 369q4 -88 -33 -168q-34 -74 -89.5 -109.5t-105.5 -36.5q-25 -1 -38 3l-19 5l-15 7l-11 7l-16 10q-54 34 -93 106q-21 38 -27 80l-7 46l-3 50q-5 76 28 152q68 160 201 162q128 2 196 -156q19 -43 24 -76l6 -38zM1181 367q5 -76 -28 -152q-68 -160 -201 -162
q-128 -2 -196 156q-19 43 -24 76l-6 38l-2 44q-4 88 33 168q34 74 89.5 109.5t105.5 36.5q25 1 38 -3l19 -5l15 -7l11 -7l16 -10q54 -34 93 -106q21 -38 27 -80l7 -46zM470 -785q154 -1 204.5 101t49.5 210l-6 597q78 -151 234 -152q185 -1 279 188q45 91 45 208
q0 92 -41 185t-110 151q-72 60 -173 60q-85 0 -156 -46q-16 -9 -65 -52l-1 545q0 90 34 152q43 76 126 77q81 1 125 -73q36 -61 37 -148q-1 -10 1 -12h93q-7 43 -16 79q-21 88 -47 132q-62 103 -193 104q-154 1 -204.5 -101t-49.5 -210l6 -597q-78 151 -234 152
q-185 1 -279 -188q-45 -91 -45 -208q0 -92 41 -185t111.5 -152t171.5 -59q85 0 156 46q34 22 64 58v0q-1 -142 3 -346q4 -213 4 -205q0 -113 -54 -174q-48 -54 -111 -55q-83 -1 -126 75q-36 62 -36 151l-96 1q2 -122 68 -211q73 -97 190 -98z" />
    <glyph glyph-name="egrave" unicode="&#xe8;" horiz-adv-x="904" 
d="M807 -314q1 -152 -103 -234.5t-257 -83.5q-210 -1 -286 120q-36 57 -54 126l-13 48v18l-4 59v1016h88v-95q0 -336 240 -338q106 -1 165.5 63t59.5 171l-6 41l-7 39q-8 47 -36 102l72 33q72 -138 72 -266q0 -117 -103 -194q-94 -70 -215 -71q-149 -1 -242 131v-623
q0 -317 269 -298l43 3l38 7q33 6 67 27q88 54 111 154q7 29 7 64q1 144 -98 225l49 53q142 -91 143 -297z" />
    <glyph glyph-name="egrave" unicode="&#x438;" horiz-adv-x="904" 
d="M807 -314q1 -152 -103 -234.5t-257 -83.5q-210 -1 -286 120q-36 57 -54 126l-13 48v18l-4 59v1016h88v-95q0 -336 240 -338q106 -1 165.5 63t59.5 171l-6 41l-7 39q-8 47 -36 102l72 33q72 -138 72 -266q0 -117 -103 -194q-94 -70 -215 -71q-149 -1 -242 131v-623
q0 -317 269 -298l43 3l38 7q33 6 67 27q88 54 111 154q7 29 7 64q1 144 -98 225l49 53q142 -91 143 -297z" />
    <glyph glyph-name="eacute" unicode="&#xe9;" horiz-adv-x="976" 
d="M273 -491l-35 25l-32 32l-22 36l-18 46l-12 50l-2 36v34l6 40l9 31l10 26l13 32l15 32l21 30l15 19l14 19l16 20l21 25l24 24l34 33l87 79l25 21l21 20l32 27l26 21l26 26l24 23l24 24l18 20l19 26l15 26l10 25l8 26l6 27l4 26l2 31l-1 39l-7 41l-10 40l-15 39l-18 30
l-15 22l-20 21l-22 21l-24 20l-26 15l-25 9l-29 8l-35 6h-34l-40 -3l-33 -10l-26 -9l-22 -12l-19 -12l-25 -17l-25 -24l-16 -17l-15 -21l-18 -29l-8 -23l-8 -26l-5 -23l-5 -28l-2 -31v-28l3 -25l2 -19l11 -30l14 -26l15 -21l15 -18l27 -25l32 27l-9 12l-15 22l-16 38l-4 50
l4 46l16 64l25 52l42 42l43 23l50 11l41 -4l35 -9l31 -13l27 -20l26 -34l17 -39l9 -31l6 -32l5 -34l-3 -39l-5 -29l-12 -34l-15 -27l-20 -26l-25 -26l-27 -24l-158 -133l-45 -41l-45 -42l-33 -33l-36 -39l-31 -40l-30 -41l-26 -40l-20 -41l-16 -41l-8 -40l-3 -41v-36l3 -45
l6 -38l18 -52l22 -48l44 -58q20 -27 41 -44q13 -11 85 -51q53 -30 102 -36l53 -7l62 -2l27 1l46 5l32 6l34 12l40 19l24 13l40 26l30 22q113 83 114 267t-186 320l-22 -25l46 -63l22 -39l19 -40l17 -43l10 -45l4 -31l1 -38l-4 -40l-8 -33l-7 -19l-7 -20l-11 -20l-20 -26
l-25 -26l-25 -21l-50 -30l-53 -23l-50 -10l-40 -3h-45l-39 5l-33 9l-38 15z" />
    <glyph glyph-name="eacute" unicode="&#x439;" horiz-adv-x="976" 
d="M273 -491l-35 25l-32 32l-22 36l-18 46l-12 50l-2 36v34l6 40l9 31l10 26l13 32l15 32l21 30l15 19l14 19l16 20l21 25l24 24l34 33l87 79l25 21l21 20l32 27l26 21l26 26l24 23l24 24l18 20l19 26l15 26l10 25l8 26l6 27l4 26l2 31l-1 39l-7 41l-10 40l-15 39l-18 30
l-15 22l-20 21l-22 21l-24 20l-26 15l-25 9l-29 8l-35 6h-34l-40 -3l-33 -10l-26 -9l-22 -12l-19 -12l-25 -17l-25 -24l-16 -17l-15 -21l-18 -29l-8 -23l-8 -26l-5 -23l-5 -28l-2 -31v-28l3 -25l2 -19l11 -30l14 -26l15 -21l15 -18l27 -25l32 27l-9 12l-15 22l-16 38l-4 50
l4 46l16 64l25 52l42 42l43 23l50 11l41 -4l35 -9l31 -13l27 -20l26 -34l17 -39l9 -31l6 -32l5 -34l-3 -39l-5 -29l-12 -34l-15 -27l-20 -26l-25 -26l-27 -24l-158 -133l-45 -41l-45 -42l-33 -33l-36 -39l-31 -40l-30 -41l-26 -40l-20 -41l-16 -41l-8 -40l-3 -41v-36l3 -45
l6 -38l18 -52l22 -48l44 -58q20 -27 41 -44q13 -11 85 -51q53 -30 102 -36l53 -7l62 -2l27 1l46 5l32 6l34 12l40 19l24 13l40 26l30 22q113 83 114 267t-186 320l-22 -25l46 -63l22 -39l19 -40l17 -43l10 -45l4 -31l1 -38l-4 -40l-8 -33l-7 -19l-7 -20l-11 -20l-20 -26
l-25 -26l-25 -21l-50 -30l-53 -23l-50 -10l-40 -3h-45l-39 5l-33 9l-38 15z" />
    <glyph glyph-name="ecircumflex" unicode="&#xea;" horiz-adv-x="902" 
d="M157 1050v93h582v-93h-582zM423 771q0 -61 40 -104q25 -19 50 -31l19 -9q13 -3 24 -14l77 -47l18 -13q50 -36 87 -100q40 -69 41 -162q1 -74 -38 -152q-40 -81 -117.5 -128t-168.5 -48q-198 -2 -292 139q-48 72 -48 173q0 79 51 178l70 -18q-27 -79 -27 -156
q0 -137 123 -206q20 -9 61 -21l29 -5l33 -2q74 -4 131 32q99 63 99 208q0 162 -203 259l-46 22q-54 26 -78 77l-8 26l-4 22l-1 23q-1 19 6 57h72zM423 771q0 -61 40 -104q25 -19 50 -31l19 -9q13 -3 24 -14l77 -47l18 -13q50 -36 87 -100q40 -69 41 -162q1 -74 -38 -152
q-40 -81 -117.5 -128t-168.5 -48q-198 -2 -292 139q-48 72 -48 173q0 79 51 178l70 -18q-27 -79 -27 -156q0 -137 123 -206q20 -9 61 -21l29 -5l33 -2q74 -4 131 32q99 63 99 208q0 162 -203 259l-46 22q-54 26 -78 77l-8 26l-4 22l-1 23q-1 19 6 57h72z" />
    <glyph glyph-name="ecircumflex" unicode="&#x43a;" horiz-adv-x="902" 
d="M157 1050v93h582v-93h-582zM423 771q0 -61 40 -104q25 -19 50 -31l19 -9q13 -3 24 -14l77 -47l18 -13q50 -36 87 -100q40 -69 41 -162q1 -74 -38 -152q-40 -81 -117.5 -128t-168.5 -48q-198 -2 -292 139q-48 72 -48 173q0 79 51 178l70 -18q-27 -79 -27 -156
q0 -137 123 -206q20 -9 61 -21l29 -5l33 -2q74 -4 131 32q99 63 99 208q0 162 -203 259l-46 22q-54 26 -78 77l-8 26l-4 22l-1 23q-1 19 6 57h72zM423 771q0 -61 40 -104q25 -19 50 -31l19 -9q13 -3 24 -14l77 -47l18 -13q50 -36 87 -100q40 -69 41 -162q1 -74 -38 -152
q-40 -81 -117.5 -128t-168.5 -48q-198 -2 -292 139q-48 72 -48 173q0 79 51 178l70 -18q-27 -79 -27 -156q0 -137 123 -206q20 -9 61 -21l29 -5l33 -2q74 -4 131 32q99 63 99 208q0 162 -203 259l-46 22q-54 26 -78 77l-8 26l-4 22l-1 23q-1 19 6 57h72z" />
    <glyph glyph-name="edieresis" unicode="&#xeb;" horiz-adv-x="919" 
d="M155 1050v93h597l4 -93h-601zM205 213q-71 136 -69 220l1 37l6 44q3 25 22 66q34 74 106.5 124t187.5 51t202 -57q46 -31 92 -144l16 -96q6 -38 6 -113v-606q0 -40 -4 -59v-18l-4 -14l-9 -34q-17 -65 -54 -126q-72 -120 -286 -120q-153 0 -256 82.5t-104 235.5
q-1 204 143 297l49 -53q-97 -79 -98 -225q-1 -145 118 -218q34 -21 67 -27l38 -7l43 -3q269 -19 269 298v597q0 155 -35 226q-49 101 -186 102q-234 1 -236 -224q-1 -92 57 -201z" />
    <glyph glyph-name="edieresis" unicode="&#x43b;" horiz-adv-x="919" 
d="M155 1050v93h597l4 -93h-601zM205 213q-71 136 -69 220l1 37l6 44q3 25 22 66q34 74 106.5 124t187.5 51t202 -57q46 -31 92 -144l16 -96q6 -38 6 -113v-606q0 -40 -4 -59v-18l-4 -14l-9 -34q-17 -65 -54 -126q-72 -120 -286 -120q-153 0 -256 82.5t-104 235.5
q-1 204 143 297l49 -53q-97 -79 -98 -225q-1 -145 118 -218q34 -21 67 -27l38 -7l43 -3q269 -19 269 298v597q0 155 -35 226q-49 101 -186 102q-234 1 -236 -224q-1 -92 57 -201z" />
    <glyph glyph-name="igrave" unicode="&#xec;" horiz-adv-x="974" 
d="M158 1050v93h657v-93h-657zM486 755q215 2 321 -188q29 -52 39 -113l9 -55l4 -32q0 -90 -28 -160q-34 -85 -79 -134l-45 -49l-69 -61l-35 35q162 171 162 361q0 186 -131 271q-32 21 -73 30l-31 7q-27 6 -42 6q-81 0 -142 -39q-40 -26 -98 -117q-39 -78 -39 -158
q0 -187 162 -361l-35 -35q-220 180 -221 404q-1 230 186 338q85 49 185 50z" />
    <glyph glyph-name="igrave" unicode="&#x43c;" horiz-adv-x="974" 
d="M158 1050v93h657v-93h-657zM486 755q215 2 321 -188q29 -52 39 -113l9 -55l4 -32q0 -90 -28 -160q-34 -85 -79 -134l-45 -49l-69 -61l-35 35q162 171 162 361q0 186 -131 271q-32 21 -73 30l-31 7q-27 6 -42 6q-81 0 -142 -39q-40 -26 -98 -117q-39 -78 -39 -158
q0 -187 162 -361l-35 -35q-220 180 -221 404q-1 230 186 338q85 49 185 50z" />
    <glyph glyph-name="iacute" unicode="&#xed;" horiz-adv-x="1415" 
d="M1192 1050h-975v93l975 1v-94zM367 -37q-121 117 -175 203q-77 121 -77 252q0 201 162 294q28 16 74 30l35 7q30 6 51 6q183 0 271 -146q80 144 268 146t280 -162q43 -77 44 -175q1 -102 -41 -184l127 -78l-51 -80l-121 76q-46 -76 -166 -189l-37 35q87 90 141 202
q57 118 54 225l-1 39q0 7 -2 17l-6 22q-3 12 -10 28l-5 12q-2 9 -11 18q-35 58 -90 84q-36 17 -59 21l-44 7q-140 0 -193 -130q-34 -85 -34 -252v-20h-89v96l-4 29v25l-4 18l-9 47q-35 185 -210 187q-85 1 -189 -111q-15 -33 -27 -69q-10 -55 -10 -68q0 -216 193 -427z" />
    <glyph glyph-name="iacute" unicode="&#x43d;" horiz-adv-x="1415" 
d="M1192 1050h-975v93l975 1v-94zM367 -37q-121 117 -175 203q-77 121 -77 252q0 201 162 294q28 16 74 30l35 7q30 6 51 6q183 0 271 -146q80 144 268 146t280 -162q43 -77 44 -175q1 -102 -41 -184l127 -78l-51 -80l-121 76q-46 -76 -166 -189l-37 35q87 90 141 202
q57 118 54 225l-1 39q0 7 -2 17l-6 22q-3 12 -10 28l-5 12q-2 9 -11 18q-35 58 -90 84q-36 17 -59 21l-44 7q-140 0 -193 -130q-34 -85 -34 -252v-20h-89v96l-4 29v25l-4 18l-9 47q-35 185 -210 187q-85 1 -189 -111q-15 -33 -27 -69q-10 -55 -10 -68q0 -216 193 -427z" />
    <glyph glyph-name="icircumflex" unicode="&#xee;" horiz-adv-x="1388" 
d="M182 1050v93h977v-93h-977zM175 716l2 -150q3 -195 116 -197q39 -1 82 39q20 38 27 90q21 166 95 221q48 36 120 36q94 0 164 -84q74 84 185 84q279 0 279 -326l-8 -735l-9 -44q-36 -175 -222 -244l-119 -28l-70 -7l-79 -3q-242 -9 -378 100q-123 99 -124 234
q-1 163 113 271l47 -43q-66 -84 -66 -209q0 -136 145 -211q116 -60 263 -60q167 0 247 38q74 35 131 119q25 51 30 94l7 56l3 66v595q0 255 -184 255q-150 0 -150 -209v-177h-91v177q0 93 -14 136q-25 73 -98 73q-41 0 -66 -20q-35 -29 -55 -147q-10 -59 -28 -107
q-42 -112 -168 -112q-138 0 -178 83l-28 89l-7 51l-3 54v152h89z" />
    <glyph glyph-name="icircumflex" unicode="&#x43e;" horiz-adv-x="1388" 
d="M182 1050v93h977v-93h-977zM175 716l2 -150q3 -195 116 -197q39 -1 82 39q20 38 27 90q21 166 95 221q48 36 120 36q94 0 164 -84q74 84 185 84q279 0 279 -326l-8 -735l-9 -44q-36 -175 -222 -244l-119 -28l-70 -7l-79 -3q-242 -9 -378 100q-123 99 -124 234
q-1 163 113 271l47 -43q-66 -84 -66 -209q0 -136 145 -211q116 -60 263 -60q167 0 247 38q74 35 131 119q25 51 30 94l7 56l3 66v595q0 255 -184 255q-150 0 -150 -209v-177h-91v177q0 93 -14 136q-25 73 -98 73q-41 0 -66 -20q-35 -29 -55 -147q-10 -59 -28 -107
q-42 -112 -168 -112q-138 0 -178 83l-28 89l-7 51l-3 54v152h89z" />
    <glyph glyph-name="idieresis" unicode="&#xef;" horiz-adv-x="976" 
d="M150 1105v93h552v-93h-552zM273 -491l-35 25l-32 32l-22 36l-18 46l-12 50l-2 36v34l6 40l9 31l10 26l13 32l15 32l21 30l15 19l14 19l16 20l21 25l24 24l34 33l87 79l25 21l21 20l32 27l26 21l26 26l24 23l24 24l18 20l19 26l15 26l10 25l8 26l6 27l4 26l2 31l-1 39
l-7 41l-10 40l-15 39l-18 30l-15 22l-20 21l-23 17l-24 20l-25 16l-25 10l-29 10l-35 6h-34l-43 -7l-30 -7l-26 -8l-22 -15l-44 -26l-25 -24l-16 -17l-15 -21l-18 -29l-8 -23l-8 -26l-5 -23l-5 -28l-2 -31v-28l3 -25l2 -19l11 -30l14 -26l15 -21l15 -18l27 -25l32 27l-9 12
l-15 22l-16 38l-4 50l4 46l16 64l30 46l40 38l46 22l52 10l34 -2l38 -8l24 -14l22 -17l30 -37l30 -60l6 -32l5 -34l-3 -39l-5 -29l-12 -34l-15 -27l-20 -26l-25 -26l-27 -24l-158 -133l-45 -41l-45 -42l-33 -33l-36 -39l-31 -40l-30 -41l-26 -40l-20 -41l-16 -41l-8 -40
l-3 -41v-36l3 -45l6 -38l18 -52l22 -48l44 -58q20 -27 41 -44q13 -11 85 -51q53 -30 102 -36l53 -7l62 -2l27 1l46 5l32 6l34 12l40 19l24 13l40 26l30 22q113 83 114 267t-186 320l-22 -25l46 -63l22 -39l19 -40l17 -43l10 -45l4 -31l1 -38l-4 -40l-8 -33l-7 -19l-7 -20
l-11 -20l-20 -26l-25 -26l-25 -21l-50 -30l-53 -23l-50 -10l-40 -3h-45l-39 5l-33 9l-38 15z" />
    <glyph glyph-name="idieresis" unicode="&#x43f;" horiz-adv-x="976" 
d="M150 1105v93h552v-93h-552zM273 -491l-35 25l-32 32l-22 36l-18 46l-12 50l-2 36v34l6 40l9 31l10 26l13 32l15 32l21 30l15 19l14 19l16 20l21 25l24 24l34 33l87 79l25 21l21 20l32 27l26 21l26 26l24 23l24 24l18 20l19 26l15 26l10 25l8 26l6 27l4 26l2 31l-1 39
l-7 41l-10 40l-15 39l-18 30l-15 22l-20 21l-23 17l-24 20l-25 16l-25 10l-29 10l-35 6h-34l-43 -7l-30 -7l-26 -8l-22 -15l-44 -26l-25 -24l-16 -17l-15 -21l-18 -29l-8 -23l-8 -26l-5 -23l-5 -28l-2 -31v-28l3 -25l2 -19l11 -30l14 -26l15 -21l15 -18l27 -25l32 27l-9 12
l-15 22l-16 38l-4 50l4 46l16 64l30 46l40 38l46 22l52 10l34 -2l38 -8l24 -14l22 -17l30 -37l30 -60l6 -32l5 -34l-3 -39l-5 -29l-12 -34l-15 -27l-20 -26l-25 -26l-27 -24l-158 -133l-45 -41l-45 -42l-33 -33l-36 -39l-31 -40l-30 -41l-26 -40l-20 -41l-16 -41l-8 -40
l-3 -41v-36l3 -45l6 -38l18 -52l22 -48l44 -58q20 -27 41 -44q13 -11 85 -51q53 -30 102 -36l53 -7l62 -2l27 1l46 5l32 6l34 12l40 19l24 13l40 26l30 22q113 83 114 267t-186 320l-22 -25l46 -63l22 -39l19 -40l17 -43l10 -45l4 -31l1 -38l-4 -40l-8 -33l-7 -19l-7 -20
l-11 -20l-20 -26l-25 -26l-25 -21l-50 -30l-53 -23l-50 -10l-40 -3h-45l-39 5l-33 9l-38 15z" />
    <glyph glyph-name="eth" unicode="&#xf0;" horiz-adv-x="902" 
d="M654 1181q32 0 64.5 -32.5t32.5 -64.5q0 -26 -28.5 -61t-68.5 -36q-42 -1 -69.5 27t-28.5 70q0 21 29 65q15 17 33 24zM228 1179q40 0 67.5 -28t28.5 -68t-27.5 -67.5t-68.5 -28.5t-67.5 27.5t-28.5 68.5q-1 39 28 67.5t68 28.5zM423 771q0 -61 40 -104q25 -19 50 -31
l19 -9q13 -3 24 -14l77 -47l18 -13q50 -36 87 -100q40 -69 41 -162q1 -74 -38 -152q-40 -81 -117.5 -128t-168.5 -48q-198 -2 -292 139q-48 72 -48 173q0 79 51 178l70 -18q-27 -79 -27 -156q0 -137 123 -206q20 -9 61 -21l29 -5l33 -2q74 -4 131 32q99 63 99 208
q0 162 -203 259l-46 22q-54 26 -78 77l-8 26l-4 22l-1 23q-1 19 6 57h72zM423 771q0 -61 40 -104q25 -19 50 -31l19 -9q13 -3 24 -14l77 -47l18 -13q50 -36 87 -100q40 -69 41 -162q1 -74 -38 -152q-40 -81 -117.5 -128t-168.5 -48q-198 -2 -292 139q-48 72 -48 173
q0 79 51 178l70 -18q-27 -79 -27 -156q0 -137 123 -206q20 -9 61 -21l29 -5l33 -2q74 -4 131 32q99 63 99 208q0 162 -203 259l-46 22q-54 26 -78 77l-8 26l-4 22l-1 23q-1 19 6 57h72z" />
    <glyph glyph-name="eth" unicode="&#x440;" horiz-adv-x="902" 
d="M654 1181q32 0 64.5 -32.5t32.5 -64.5q0 -26 -28.5 -61t-68.5 -36q-42 -1 -69.5 27t-28.5 70q0 21 29 65q15 17 33 24zM228 1179q40 0 67.5 -28t28.5 -68t-27.5 -67.5t-68.5 -28.5t-67.5 27.5t-28.5 68.5q-1 39 28 67.5t68 28.5zM423 771q0 -61 40 -104q25 -19 50 -31
l19 -9q13 -3 24 -14l77 -47l18 -13q50 -36 87 -100q40 -69 41 -162q1 -74 -38 -152q-40 -81 -117.5 -128t-168.5 -48q-198 -2 -292 139q-48 72 -48 173q0 79 51 178l70 -18q-27 -79 -27 -156q0 -137 123 -206q20 -9 61 -21l29 -5l33 -2q74 -4 131 32q99 63 99 208
q0 162 -203 259l-46 22q-54 26 -78 77l-8 26l-4 22l-1 23q-1 19 6 57h72zM423 771q0 -61 40 -104q25 -19 50 -31l19 -9q13 -3 24 -14l77 -47l18 -13q50 -36 87 -100q40 -69 41 -162q1 -74 -38 -152q-40 -81 -117.5 -128t-168.5 -48q-198 -2 -292 139q-48 72 -48 173
q0 79 51 178l70 -18q-27 -79 -27 -156q0 -137 123 -206q20 -9 61 -21l29 -5l33 -2q74 -4 131 32q99 63 99 208q0 162 -203 259l-46 22q-54 26 -78 77l-8 26l-4 22l-1 23q-1 19 6 57h72z" />
    <glyph glyph-name="ntilde" unicode="&#xf1;" horiz-adv-x="1415" 
d="M909 1181q32 0 64.5 -32.5t32.5 -64.5q0 -26 -28.5 -61t-68.5 -36q-42 -1 -69.5 27t-28.5 70q0 21 29 65q15 17 33 24zM485 1179q40 0 67.5 -28t28.5 -68t-27.5 -67.5t-68.5 -28.5t-67.5 27.5t-28.5 68.5q-1 39 28 67.5t68 28.5zM367 -37q-121 117 -175 203
q-77 121 -77 252q0 201 162 294q28 16 74 30l35 7q30 6 51 6q183 0 271 -146q80 144 268 146t280 -162q43 -77 44 -175q1 -102 -41 -184l127 -78l-51 -80l-121 76q-46 -76 -166 -189l-37 35q87 90 141 202q57 118 54 225l-1 39q0 7 -2 17l-6 22q-3 12 -10 28l-5 12
q-2 9 -11 18q-35 58 -90 84q-36 17 -59 21l-44 7q-140 0 -193 -130q-34 -85 -34 -252v-20h-89v96l-4 29v25l-4 18l-9 47q-35 185 -210 187q-85 1 -189 -111q-15 -33 -27 -69q-10 -55 -10 -68q0 -216 193 -427z" />
    <glyph glyph-name="ntilde" unicode="&#x441;" horiz-adv-x="1415" 
d="M909 1181q32 0 64.5 -32.5t32.5 -64.5q0 -26 -28.5 -61t-68.5 -36q-42 -1 -69.5 27t-28.5 70q0 21 29 65q15 17 33 24zM485 1179q40 0 67.5 -28t28.5 -68t-27.5 -67.5t-68.5 -28.5t-67.5 27.5t-28.5 68.5q-1 39 28 67.5t68 28.5zM367 -37q-121 117 -175 203
q-77 121 -77 252q0 201 162 294q28 16 74 30l35 7q30 6 51 6q183 0 271 -146q80 144 268 146t280 -162q43 -77 44 -175q1 -102 -41 -184l127 -78l-51 -80l-121 76q-46 -76 -166 -189l-37 35q87 90 141 202q57 118 54 225l-1 39q0 7 -2 17l-6 22q-3 12 -10 28l-5 12
q-2 9 -11 18q-35 58 -90 84q-36 17 -59 21l-44 7q-140 0 -193 -130q-34 -85 -34 -252v-20h-89v96l-4 29v25l-4 18l-9 47q-35 185 -210 187q-85 1 -189 -111q-15 -33 -27 -69q-10 -55 -10 -68q0 -216 193 -427z" />
    <glyph glyph-name="ograve" unicode="&#xf2;" horiz-adv-x="1388" 
d="M929 1181q32 0 64.5 -32.5t32.5 -64.5q0 -26 -28.5 -61t-68.5 -36q-42 -1 -69.5 27t-28.5 70q0 21 29 65q15 17 33 24zM530 1179q40 0 67.5 -28t28.5 -68t-27.5 -67.5t-68.5 -28.5t-67.5 27.5t-28.5 68.5q-1 39 28 67.5t68 28.5zM175 716l2 -150q3 -195 116 -197
q39 -1 82 39q20 38 27 90q21 166 95 221q48 36 120 36q94 0 164 -84q74 84 185 84q279 0 279 -326l-8 -735l-9 -44q-36 -175 -222 -244l-119 -28l-70 -7l-79 -3q-242 -9 -378 100q-123 99 -124 234q-1 163 113 271l47 -43q-66 -84 -66 -209q0 -136 145 -211q116 -60 263 -60
q167 0 247 38q74 35 131 119q25 51 30 94l7 56l3 66v595q0 255 -184 255q-150 0 -150 -209v-177h-91v177q0 93 -14 136q-25 73 -98 73q-41 0 -66 -20q-35 -29 -55 -147q-10 -59 -28 -107q-42 -112 -168 -112q-138 0 -178 83l-28 89l-7 51l-3 54v152h89z" />
    <glyph glyph-name="ograve" unicode="&#x442;" horiz-adv-x="1388" 
d="M929 1181q32 0 64.5 -32.5t32.5 -64.5q0 -26 -28.5 -61t-68.5 -36q-42 -1 -69.5 27t-28.5 70q0 21 29 65q15 17 33 24zM530 1179q40 0 67.5 -28t28.5 -68t-27.5 -67.5t-68.5 -28.5t-67.5 27.5t-28.5 68.5q-1 39 28 67.5t68 28.5zM175 716l2 -150q3 -195 116 -197
q39 -1 82 39q20 38 27 90q21 166 95 221q48 36 120 36q94 0 164 -84q74 84 185 84q279 0 279 -326l-8 -735l-9 -44q-36 -175 -222 -244l-119 -28l-70 -7l-79 -3q-242 -9 -378 100q-123 99 -124 234q-1 163 113 271l47 -43q-66 -84 -66 -209q0 -136 145 -211q116 -60 263 -60
q167 0 247 38q74 35 131 119q25 51 30 94l7 56l3 66v595q0 255 -184 255q-150 0 -150 -209v-177h-91v177q0 93 -14 136q-25 73 -98 73q-41 0 -66 -20q-35 -29 -55 -147q-10 -59 -28 -107q-42 -112 -168 -112q-138 0 -178 83l-28 89l-7 51l-3 54v152h89z" />
    <glyph glyph-name="oacute" unicode="&#xf3;" horiz-adv-x="902" 
d="M157 1010v70h582v-70h-582zM654 1511q32 0 64.5 -32.5t32.5 -64.5q0 -26 -28.5 -61t-68.5 -36q-42 -1 -69.5 27t-28.5 70q0 21 29 65q15 17 33 24zM228 1509q40 0 67.5 -28t28.5 -68t-27.5 -67.5t-68.5 -28.5t-67.5 27.5t-28.5 68.5q-1 39 28 67.5t68 28.5zM423 771
q0 -61 40 -104q25 -19 50 -31l19 -9q13 -3 24 -14l77 -47l18 -13q50 -36 87 -100q40 -69 41 -162q1 -74 -38 -152q-40 -81 -117.5 -128t-168.5 -48q-198 -2 -292 139q-48 72 -48 173q0 79 51 178l70 -18q-27 -79 -27 -156q0 -137 123 -206q20 -9 61 -21l29 -5l33 -2
q74 -4 131 32q99 63 99 208q0 162 -203 259l-46 22q-54 26 -78 77l-8 26l-4 22l-1 23q-1 19 6 57h72zM423 771q0 -61 40 -104q25 -19 50 -31l19 -9q13 -3 24 -14l77 -47l18 -13q50 -36 87 -100q40 -69 41 -162q1 -74 -38 -152q-40 -81 -117.5 -128t-168.5 -48
q-198 -2 -292 139q-48 72 -48 173q0 79 51 178l70 -18q-27 -79 -27 -156q0 -137 123 -206q20 -9 61 -21l29 -5l33 -2q74 -4 131 32q99 63 99 208q0 162 -203 259l-46 22q-54 26 -78 77l-8 26l-4 22l-1 23q-1 19 6 57h72z" />
    <glyph glyph-name="oacute" unicode="&#x443;" horiz-adv-x="902" 
d="M157 1010v70h582v-70h-582zM654 1511q32 0 64.5 -32.5t32.5 -64.5q0 -26 -28.5 -61t-68.5 -36q-42 -1 -69.5 27t-28.5 70q0 21 29 65q15 17 33 24zM228 1509q40 0 67.5 -28t28.5 -68t-27.5 -67.5t-68.5 -28.5t-67.5 27.5t-28.5 68.5q-1 39 28 67.5t68 28.5zM423 771
q0 -61 40 -104q25 -19 50 -31l19 -9q13 -3 24 -14l77 -47l18 -13q50 -36 87 -100q40 -69 41 -162q1 -74 -38 -152q-40 -81 -117.5 -128t-168.5 -48q-198 -2 -292 139q-48 72 -48 173q0 79 51 178l70 -18q-27 -79 -27 -156q0 -137 123 -206q20 -9 61 -21l29 -5l33 -2
q74 -4 131 32q99 63 99 208q0 162 -203 259l-46 22q-54 26 -78 77l-8 26l-4 22l-1 23q-1 19 6 57h72zM423 771q0 -61 40 -104q25 -19 50 -31l19 -9q13 -3 24 -14l77 -47l18 -13q50 -36 87 -100q40 -69 41 -162q1 -74 -38 -152q-40 -81 -117.5 -128t-168.5 -48
q-198 -2 -292 139q-48 72 -48 173q0 79 51 178l70 -18q-27 -79 -27 -156q0 -137 123 -206q20 -9 61 -21l29 -5l33 -2q74 -4 131 32q99 63 99 208q0 162 -203 259l-46 22q-54 26 -78 77l-8 26l-4 22l-1 23q-1 19 6 57h72z" />
    <glyph glyph-name="ocircumflex" unicode="&#xf4;" horiz-adv-x="1415" 
d="M1192 1000h-975l1 82l974 -1v-81zM909 1511q32 0 64.5 -32.5t32.5 -64.5q0 -26 -28.5 -61t-68.5 -36q-42 -1 -69.5 27t-28.5 70q0 21 29 65q15 17 33 24zM485 1509q40 0 67.5 -28t28.5 -68t-27.5 -67.5t-68.5 -28.5t-67.5 27.5t-28.5 68.5q-1 39 28 67.5t68 28.5z
M367 -37q-121 117 -175 203q-77 121 -77 252q0 201 162 294q28 16 74 30l35 7q30 6 51 6q183 0 271 -146q80 144 268 146t280 -162q43 -77 44 -175q1 -102 -41 -184l127 -78l-51 -80l-121 76q-46 -76 -166 -189l-37 35q87 90 141 202q57 118 54 225l-1 39q0 7 -2 17l-6 22
q-3 12 -10 28l-5 12q-2 9 -11 18q-35 58 -90 84q-36 17 -59 21l-44 7q-140 0 -193 -130q-34 -85 -34 -252v-20h-89v96l-4 29v25l-4 18l-9 47q-35 185 -210 187q-85 1 -189 -111q-15 -33 -27 -69q-10 -55 -10 -68q0 -216 193 -427z" />
    <glyph glyph-name="ocircumflex" unicode="&#x444;" horiz-adv-x="1415" 
d="M1192 1000h-975l1 82l974 -1v-81zM909 1511q32 0 64.5 -32.5t32.5 -64.5q0 -26 -28.5 -61t-68.5 -36q-42 -1 -69.5 27t-28.5 70q0 21 29 65q15 17 33 24zM485 1509q40 0 67.5 -28t28.5 -68t-27.5 -67.5t-68.5 -28.5t-67.5 27.5t-28.5 68.5q-1 39 28 67.5t68 28.5z
M367 -37q-121 117 -175 203q-77 121 -77 252q0 201 162 294q28 16 74 30l35 7q30 6 51 6q183 0 271 -146q80 144 268 146t280 -162q43 -77 44 -175q1 -102 -41 -184l127 -78l-51 -80l-121 76q-46 -76 -166 -189l-37 35q87 90 141 202q57 118 54 225l-1 39q0 7 -2 17l-6 22
q-3 12 -10 28l-5 12q-2 9 -11 18q-35 58 -90 84q-36 17 -59 21l-44 7q-140 0 -193 -130q-34 -85 -34 -252v-20h-89v96l-4 29v25l-4 18l-9 47q-35 185 -210 187q-85 1 -189 -111q-15 -33 -27 -69q-10 -55 -10 -68q0 -216 193 -427z" />
    <glyph glyph-name="otilde" unicode="&#xf5;" horiz-adv-x="1388" 
d="M182 1000v80h1017v-80h-1017zM889 1511q32 0 64 -33t33 -65q1 -26 -27.5 -60.5t-69.5 -35.5q-26 -1 -70 27q-27 27 -28 69q-1 28 29 66q15 15 33 24zM470 1509q40 0 67.5 -28t28.5 -68t-27.5 -67.5t-68.5 -28.5t-67.5 27.5t-28.5 68.5q-1 39 28 67.5t68 28.5zM175 716
l2 -150q3 -195 116 -197q39 -1 82 39q20 38 27 90q21 166 95 221q48 36 120 36q94 0 164 -84q74 84 185 84q279 0 279 -326l-8 -735l-9 -44q-36 -175 -222 -244l-119 -28l-70 -7l-79 -3q-242 -9 -378 100q-123 99 -124 234q-1 163 113 271l47 -43q-66 -84 -66 -209
q0 -136 145 -211q116 -60 263 -60q167 0 247 38q74 35 131 119q25 51 30 94l7 56l3 66v595q0 255 -184 255q-150 0 -150 -209v-177h-91v177q0 93 -14 136q-25 73 -98 73q-41 0 -66 -20q-35 -29 -55 -147q-10 -59 -28 -107q-42 -112 -168 -112q-138 0 -178 83l-28 89l-7 51
l-3 54v152h89z" />
    <glyph glyph-name="otilde" unicode="&#x445;" horiz-adv-x="1388" 
d="M182 1000v80h1017v-80h-1017zM889 1511q32 0 64 -33t33 -65q1 -26 -27.5 -60.5t-69.5 -35.5q-26 -1 -70 27q-27 27 -28 69q-1 28 29 66q15 15 33 24zM470 1509q40 0 67.5 -28t28.5 -68t-27.5 -67.5t-68.5 -28.5t-67.5 27.5t-28.5 68.5q-1 39 28 67.5t68 28.5zM175 716
l2 -150q3 -195 116 -197q39 -1 82 39q20 38 27 90q21 166 95 221q48 36 120 36q94 0 164 -84q74 84 185 84q279 0 279 -326l-8 -735l-9 -44q-36 -175 -222 -244l-119 -28l-70 -7l-79 -3q-242 -9 -378 100q-123 99 -124 234q-1 163 113 271l47 -43q-66 -84 -66 -209
q0 -136 145 -211q116 -60 263 -60q167 0 247 38q74 35 131 119q25 51 30 94l7 56l3 66v595q0 255 -184 255q-150 0 -150 -209v-177h-91v177q0 93 -14 136q-25 73 -98 73q-41 0 -66 -20q-35 -29 -55 -147q-10 -59 -28 -107q-42 -112 -168 -112q-138 0 -178 83l-28 89l-7 51
l-3 54v152h89z" />
    <glyph glyph-name="NULL" horiz-adv-x="0" 
 />
    </font>
</defs>
</svg>
